Ссылка на приватное зеркало нашего сайта всего за 1$. Внимание количество ограничено!!!

2 сезон

iTunes

1 сезон

1

2 сезон

2 сезон

iTunes

1 сезон

RePack

30

Ultimate

ВАЖНО

ИГРА 18+

pack

RePack

MK11
pack

Забери бонус

RePack

jed

!!Акция!!

Alien_Rage

RePack

fifa19

RePack

Assassins Creed: Odyssey

RePack

NEED FOR SPEED™ PAYBACK

4 сезон

9 сезон

Бесстыжие 9 сезон

Все сериалы

все сериалы на PB.wtf

RePack

FAR CRY 5
  

Рога / Horns (Александр Ажа) [2013, ужасы, фэнтези, триллер, драма, BDRemux 1080p] DVO+AVO pb.wtf

Рога через торрент pb.wtf

Размер: 27.09 GB | Добавлен: 5 лет 2 мес. назад | Торрент скачан:63 раза
Скачать  

17-09-2015 01:50 Рога Скачать торрент  

Информация о фильме

Название: Рога

Оригинальное название: Horns

Год выхода: 2013

Страна: США, Канада

Продолжительность: 01:59:55

Перевод: Перевод 1: Любительский (двухголосый, закадровый) Пиратская студия

Перевод 2: Авторский (одноголосый, закадровый) Алексей Матвеев

Оригинальная аудиодорожка: английский

Субтитры: русские, английские

Жанр: фэнтези, триллер, драма, ужасы

Режиссер: Александр Ажа

В ролях: Дэниэл Рэдклифф, Джуно Темпл, Макс Мингелла, Джо Андерсон, Келли Гарнер, Джеймс Римар, Кэтлин Куинлен, Хэзер Грэм, Дэвид Морс, Майкл Адамуэйт

Описание:

История простого американского парня по имени Иг Перриш, который просыпается рано утром с диким похмельем и обнаруживает, что у него на голове выросли настоящие рога.

Вместе с рогами у героя появляется еще одно дьявольское качество: в присутствии Перриша люди начинают говорить то, что думают на самом деле, и все грязные секреты оказываются на поверхности. Теперь Иг может узнать, кто на самом деле убил его девушку, поскольку в этом преступлении обвиняют его самого, хоть и бездоказательно.



Файл

Качество: BDRemux 1080p
Формат: MKV

Видео: AVC, 1920x1080 at 23.976 fps, 27898 kbps avg

Аудио 1: Русский AC3, 6 ch, 384 Кбит/с, 48 kHz | Пиратская студия

Аудио 2: Русский AC3, 6 ch, 384 Кбит/с, 48 kHz | Алексей Матвеев

Аудио 3: Английский DTS-HD MA, 6 ch, 3666 Кбит/с, 48 kHz | Оригинал
Общее

Уникальный идентификатор : 204166946635329446769011937021148473264 (0x99991FA56C5D1FD7963A625FE05F27B0)

Полное имя : E:ЗагрузкиHorns.2013.BDRemux.1080p.mkv

Формат : Matroska

Версия формата : Version 4 / Version 2

Размер файла : 27,1 Гбайт

Продолжительность : 1 ч. 59 м.

Режим общего битрейта : Переменный

Общий поток : 32,3 Мбит/сек

Дата кодирования : UTC 2014-12-16 13:21:44

Программа кодирования : mkvmerge v7.4.0 ('Circles') 64bit built on Dec 12 2014 12:19:56

Библиотека кодирования : libebml v1.3.0 + libmatroska v1.4.1

Видео

Идентификатор : 5

Формат : AVC

Формат/Информация : Advanced Video Codec

Профиль формата : High@L4.1

Параметр CABAC формата : Да

Параметр ReFrames формата : 2 кадра

Идентификатор кодека : V_MPEG4/ISO/AVC

Продолжительность : 1 ч. 59 м.

Вид битрейта : Переменный

Ширина : 1920 пикселей

Высота : 1080 пикселей

Соотношение сторон : 16:9

Режим частоты кадров : Постоянный

Частота кадров : 23,976 кадра/сек

Цветовое пространство : YUV

Субдискретизация насыщенности : 4:2:0

Битовая глубина : 8 бит

Тип развёртки : Прогрессивная

Default : Да

Forced : Нет

Аудио #1

Идентификатор : 1

Формат : AC-3

Формат/Информация : Audio Coding 3

Расширение режима : CM (complete main)

Параметр Endianness формата : Big

Идентификатор кодека : A_AC3

Продолжительность : 1 ч. 59 м.

Вид битрейта : Постоянный

Битрейт : 384 Кбит/сек

Каналы : 6 каналов

Расположение каналов : Front: L C R, Side: L R, LFE

Частота : 48,0 КГц

Битовая глубина : 16 бит

Метод сжатия : С потерями

Размер потока : 329 Мбайт (1%)

Заголовок : Пиратская студия

Язык : Russian

Default : Да

Forced : Да

Аудио #2

Идентификатор : 2

Формат : AC-3

Формат/Информация : Audio Coding 3

Расширение режима : CM (complete main)

Параметр Endianness формата : Big

Идентификатор кодека : A_AC3

Продолжительность : 1 ч. 59 м.

Вид битрейта : Постоянный

Битрейт : 384 Кбит/сек

Каналы : 6 каналов

Расположение каналов : Front: L C R, Side: L R, LFE

Частота : 48,0 КГц

Битовая глубина : 16 бит

Метод сжатия : С потерями

Размер потока : 329 Мбайт (1%)

Заголовок : А.Матвеев

Язык : Russian

Default : Нет

Forced : Нет

Аудио #3

Идентификатор : 6

Формат : DTS

Формат/Информация : Digital Theater Systems

Профиль формата : MA / Core

Режим : 16

Параметр Endianness формата : Big

Идентификатор кодека : A_DTS

Продолжительность : 1 ч. 59 м.

Вид битрейта : Переменный

Битрейт : Неизвестно / 1509 Кбит/сек

Каналы : 6 каналов

Расположение каналов : Front: L C R, Side: L R, LFE

Частота : 48,0 КГц

Битовая глубина : 24 бит

Метод сжатия : Без потерь / Lossy

Язык : English

Default : Нет

Forced : Нет

Текст #1

Идентификатор : 3

Формат : UTF-8

Идентификатор кодека : S_TEXT/UTF8

Идентификатор кодека/Информация : UTF-8 Plain Text

Заголовок : MartinaG

Язык : Russian

Default : Нет

Forced : Нет

Текст #2

Идентификатор : 4

Формат : UTF-8

Идентификатор кодека : S_TEXT/UTF8

Идентификатор кодека/Информация : UTF-8 Plain Text

Язык : English

Default : Нет

Forced : Нет

Меню

00:00:00.000 : en:00:00:00.000

00:05:01.551 : en:00:05:01.551

00:13:51.205 : en:00:13:51.205

00:18:19.640 : en:00:18:19.640

00:23:42.796 : en:00:23:42.796

00:29:14.169 : en:00:29:14.169

00:36:15.465 : en:00:36:15.465

00:43:39.659 : en:00:43:39.659

00:48:22.358 : en:00:48:22.358

00:53:12.981 : en:00:53:12.981

00:58:10.612 : en:00:58:10.612

01:05:06.111 : en:01:05:06.111

01:12:16.374 : en:01:12:16.374

01:15:58.179 : en:01:15:58.179

01:22:32.197 : en:01:22:32.197

01:26:56.795 : en:01:26:56.795

01:33:51.000 : en:01:33:51.000

01:38:29.195 : en:01:38:29.195

01:43:39.213 : en:01:43:39.213

01:54:02.127 : en:01:54:02.127
pb.wtf



Скачать Рога через торрент http://5.firepic.org/5/images/2015-09/15/0f2qjz9f6u72.jpg Скачать фильм Рога через торрент бесплантно в хорошем качестве Описание: История простого американского парня по имени Иг Перриш, который просыпается рано утром с диким похмельем и обнаруживает, что у ... 10 10 3
Info! Золотая раздача, скачанное не засчитывается.
Торрент: Зарегистрирован [2015-09-17 01:50] · скачан: 63 раз
Статус: √ проверено
Размер: 27.09 GB
Как cкачать? Как скачать Рога через торрент | qTorrent

28-11-2019 20:33  

Отключить всю рекламу на сайте

    Дорогой пользователь! Огромная просьба, поблагодарите релизера, оцените раздачу и оставьте свои комментарий, если Вы скачали Рога через торрент бесплатно! Внесите свою лепту в развитие PiratBit!
    Комментировать посты могут только пользователи прошедшие не сложную регистрацию
    Показать сообщения:    

    Рога через торрент
    Скачать бесплатно Рога
    Рога скачать торрент
    Рога смотреть онлайн
    Cкачать фильм Рога бесплатно
    Рога скачать торрент в хорошем качестве
    Рога смотреть онлайн бесплатно в хорошем качестве


    Вы не можете начинать темы
    Вы не можете отвечать на сообщения
    Вы не можете редактировать свои сообщения
    Вы не можете удалять свои сообщения
    Вы не можете голосовать в опросах
    Вы не можете прикреплять файлы к сообщениям
    Вы можете скачивать файлы