Ссылка на приватное зеркало нашего сайта всего за 1$. Внимание количество ограничено!!!

2 сезон

iTunes

1 сезон

1

iTunes

iTunes

iTunes

1 сезон

RePack

30

ИГРА 18+

pack

ВАЖНО

!!Акция!!

Alien_RageХит недели

RePack

MK11
pack

Забери бонус

RePack

jed

!!Акция!!

Alien_Rage

RePack

fifa19

RePack

Assassins Creed: Odyssey

RePack

NEED FOR SPEED™ PAYBACK

4 сезон

9 сезон

Бесстыжие 9 сезон

Все сериалы

все сериалы на PB.wtf

RePack

FAR CRY 5
  

Мстители: Эра Альтрона (Джосс Уидон) [2015, фантастика, боевик, приключения, BDRip 1080p, Профессиональный (дублированный) Blu-ray CEE pb.wtf

Мстители: Эра Альтрона через торрент pb.wtf

Размер: 15.43 GB | Добавлен: 5 лет 1 мес. назад | Торрент скачан:329 раз
Скачать  

17-09-2015 05:19 Мстители: Эра Альтрона Скачать торрент  


Мстители: Эра Альтрона / Avengers: Age of Ultron
««A new age begins»»

ИНФОРМАЦИЯ:
Год выпуска:2015
Страна: США
Жанр: фантастика, боевик, приключения
Продолжительность: 02:21:40
Перевод: Профессиональный (дублированный) Blu-ray CEE
Субтитры: русские (Forced), русские (Full), английские (Full),
Режиссер: Джосс Уидон

В Ролях:


Роберт Дауни мл. (Tony Stark / Iron Man), Крис Хемсворт (Thor), Крис Эванс (Steve Rogers / Captain America), Скарлетт Йоханссон (Natasha Romanoff / Black Widow), Марк Руффало (Bruce Banner / Hulk), Джереми Реннер (Clint Barton / Hawkeye), Аарон Тейлор-Джонсон (Pietro Maximoff / Quicksilver), Элизабет Олсен (Wanda Maximoff / Scarlet Witch), Джеймс Спэйдер (Ultron), Сэмюэл Л. Джексон (Nick Fury), Коби Смолдерс (Maria Hill), Пол Беттани (Jarvis / Vision)

Описание:
Человечество на грани уничтожения. На этот раз людям угрожает Альтрон - искусственный интеллект, ранее созданный для того, чтобы защищать Землю от любых угроз. Однако, главной угрозой он посчитал человечество. Международная организация Щ. И. Т. распалась, и теперь мир не способен справиться с таким мощным врагом, потому люди вновь обращаются за помощью к Величайшим Героям Земли - Мстителям. Однако Альтрон слишком силен, и есть большая вероятность, что даже им не удастся остановить начало надвигающейся Эры Альтрона, где нет места для людей...

  • Мировая премьера:13 апреля 2015

    ТЕХ.ДАННЫЕ:
    Качество: BDRip 1080p
    Формат: MKV

    Видео: AVC, 1920x804 at 23.976 fps, x264@L4.1, ~11.1 Mbps avg
    Аудио#1: Russian: 48 kHz, AC3, 3/2 (L,C,R,l,r) + LFE ch, ~640 kbps avg |Дубляж, Blu-ray CEE|
    Аудио#2: Ukrainian: 48 kHz, DTS, 3/2 (L,C,R,l,r) + LFE ch, ~1509 kbps avg |Дубляж|
    Аудио#3: English: 48 kHz, DTS, 3/2 (L,C,R,l,r) + LFE ch, ~1509 kbps avg
    Аудио#4: English: 48 kHz, AC3, 2/0 (L,R) ch, ~320.00 kbps avg |Descrіptіve|
    Аудио#5: English: 48 kHz, AC3, 2/0 (L,R) ch, ~192.00 kbps avg |Commentary With Director Joss Whedon|
    Субтитры: Russian, Ukrainian, English
    Навигация по главам: есть


    Общее
    Уникальный идентификатор : 171297442910002863603049098888708606981 (0x80DEAFFE043774C9945BAD7B1443CC05)
    Полное имя : Avengers.Age.of.Ultron.2015.BDRip.1080p.BLUEBIRD.mkv
    Формат : Matroska
    Версия формата : Version 2
    Размер файла : 15,4 Гбайт
    Продолжительность : 2 ч. 21 м.
    Общий поток : 15,6 Мбит/сек
    Название фильма : BLUEBIRD
    Дата кодирования : UTC 2015-09-17 02:24:15
    Программа кодирования : mkvmerge v7.9.0 ('Birds') 64bit
    Библиотека кодирования : libebml v1.3.1 + libmatroska v1.4.2

    Видео
    Идентификатор : 1
    Формат : AVC
    Формат/Информация : Advanced Video Codec
    Профиль формата : High@L4.1
    Параметр CABAC формата : Да
    Параметр ReFrames формата : 5 кадров
    Идентификатор кодека : V_MPEG4/ISO/AVC
    Продолжительность : 2 ч. 21 м.
    Битрейт : 11,1 Мбит/сек
    Ширина : 1920 пикселей
    Высота : 804 пикселя
    Соотношение сторон : 2,40:1
    Режим частоты кадров : Постоянный
    Частота кадров : 23,976 кадра/сек
    Цветовое пространство : YUV
    Субдискретизация насыщенности : 4:2:0
    Битовая глубина : 8 бит
    Тип развёртки : Прогрессивная
    Бит/(Пиксели*Кадры) : 0.300
    Размер потока : 11,0 Гбайт (71%)
    Библиотека кодирования : x264 core 148 r2597 e86f3a1
    Настройки программы : cabac=1 / ref=5 / deblock=1:-3:-3 / analyse=0x3:0x133 / me=umh / subme=11 / psy=1 / psy_rd=1.00:0.00 / mixed_ref=1 / me_range=32 / chroma_me=1 / trellis=2 / 8x8dct=1 / cqm=0 / deadzone=21,11 / fast_pskip=0 / chroma_qp_offset=-2 / threads=12 / lookahead_threads=2 / sliced_threads=0 / nr=0 / decimate=0 / interlaced=0 / bluray_compat=0 / constrained_intra=0 / bframes=9 / b_pyramid=2 / b_adapt=2 / b_bias=0 / direct=1 / weightb=1 / open_gop=1 / weightp=2 / keyint=240 / keyint_min=23 / scenecut=40 / intra_refresh=0 / rc=crf / mbtree=0 / crf=16.0 / qcomp=0.60 / qpmin=0 / qpmax=69 / qpstep=4 / ip_ratio=1.40 / pb_ratio=1.30 / aq=3:0.80
    Язык : English
    Default : Да
    Forced : Нет

    Аудио #1
    Идентификатор : 2
    Формат : AC-3
    Формат/Информация : Audio Coding 3
    Расширение режима : CM (complete main)
    Параметр Endianness формата : Big
    Идентификатор кодека : A_AC3
    Продолжительность : 2 ч. 21 м.
    Вид битрейта : Постоянный
    Битрейт : 640 Кбит/сек
    Каналы : 6 каналов
    Расположение каналов : Front: L C R, Side: L R, LFE
    Частота : 48,0 КГц
    Метод сжатия : С потерями
    Размер потока : 649 Мбайт (4%)
    Язык : Russian
    Default : Да
    Forced : Нет

    Аудио #2
    Идентификатор : 3
    Формат : DTS
    Формат/Информация : Digital Theater Systems
    Режим : 16
    Параметр Endianness формата : Big
    Идентификатор кодека : A_DTS
    Продолжительность : 2 ч. 21 м.
    Вид битрейта : Постоянный
    Битрейт : 1509 Кбит/сек
    Каналы : 6 каналов
    Расположение каналов : Front: L C R, Side: L R, LFE
    Частота : 48,0 КГц
    Битовая глубина : 24 бит
    Метод сжатия : С потерями
    Размер потока : 1,49 Гбайт (10%)
    Язык : Ukrainian
    Default : Нет
    Forced : Нет

    Аудио #3
    Идентификатор : 4
    Формат : DTS
    Формат/Информация : Digital Theater Systems
    Режим : 16
    Параметр Endianness формата : Big
    Идентификатор кодека : A_DTS
    Продолжительность : 2 ч. 21 м.
    Вид битрейта : Постоянный
    Битрейт : 1509 Кбит/сек
    Каналы : 6 каналов
    Расположение каналов : Front: L C R, Side: L R, LFE
    Частота : 48,0 КГц
    Битовая глубина : 24 бит
    Метод сжатия : С потерями
    Размер потока : 1,49 Гбайт (10%)
    Язык : English
    Default : Нет
    Forced : Нет

    Аудио #4
    Идентификатор : 5
    Формат : AC-3
    Формат/Информация : Audio Coding 3
    Профиль формата : Dolby Digital
    Расширение режима : CM (complete main)
    Параметр Endianness формата : Big
    Идентификатор кодека : A_AC3
    Продолжительность : 2 ч. 21 м.
    Вид битрейта : Постоянный
    Битрейт : 320 Кбит/сек
    Каналы : 2 канала
    Расположение каналов : Front: L R
    Частота : 48,0 КГц
    Метод сжатия : С потерями
    Размер потока : 324 Мбайт (2%)
    Заголовок : Descrіptіve
    Язык : English
    Default : Нет
    Forced : Нет

    Аудио #5
    Идентификатор : 6
    Формат : AC-3
    Формат/Информация : Audio Coding 3
    Расширение режима : CM (complete main)
    Параметр Endianness формата : Big
    Идентификатор кодека : A_AC3
    Продолжительность : 2 ч. 21 м.
    Вид битрейта : Постоянный
    Битрейт : 192 Кбит/сек
    Каналы : 2 канала
    Расположение каналов : Front: L R
    Частота : 48,0 КГц
    Метод сжатия : С потерями
    Размер потока : 195 Мбайт (1%)
    Заголовок : Audio Commentary With Director Joss Whedon
    Язык : English
    Default : Нет
    Forced : Нет

    Текст #1
    Идентификатор : 7
    Формат : UTF-8
    Идентификатор кодека : S_TEXT/UTF8
    Идентификатор кодека/Информация : UTF-8 Plain Text
    Заголовок : Forced
    Язык : Russian
    Default : Да
    Forced : Нет

    Текст #2
    Идентификатор : 8
    Формат : UTF-8
    Идентификатор кодека : S_TEXT/UTF8
    Идентификатор кодека/Информация : UTF-8 Plain Text
    Заголовок : Full
    Язык : Russian
    Default : Нет
    Forced : Нет

    Текст #3
    Идентификатор : 9
    Формат : UTF-8
    Идентификатор кодека : S_TEXT/UTF8
    Идентификатор кодека/Информация : UTF-8 Plain Text
    Заголовок : Full
    Язык : Ukrainian
    Default : Нет
    Forced : Нет

    Текст #4
    Идентификатор : 10
    Формат : UTF-8
    Идентификатор кодека : S_TEXT/UTF8
    Идентификатор кодека/Информация : UTF-8 Plain Text
    Заголовок : Full
    Язык : English
    Default : Нет
    Forced : Нет

    Меню
    00:00:00.000 : en:Battle for Loki's Scepter
    00:12:15.192 : en:Birth of Ultron
    00:21:23.949 : en:Avengers House Party
    00:33:01.771 : en:Attack Aftermath
    00:36:07.623 : en:Ultron Meers the Twins
    00:42:00.768 : en:Mind Games
    00:52:44.744 : en:Hulk vs. Hulkbuster
    00:59:01.871 : en:The Safe House
    01:15:51.088 : en:Cradle Robbing
    01:27:08.598 : en:Birthof the Vision
    01:36:44.757 : en:The Battle of Sokovia
    01:54:35.326 : en:"Is That the Best You Can Do?"
    02:06:27.580 : en:The New Avengers
    02:11:08.026 : en:End Credits
    Скриншоты:




    © Оформление by Ворон
    pb.wtf



  • Скачать Мстители: Эра Альтрона через торрент http://pic.kartinco.top/images/6/ordi9.jpg Скачать фильм Мстители: Эра Альтрона через торрент бесплантно в хорошем качестве Описание: Человечество на грани уничтожения. На этот раз людям угрожает Альтрон - искусственный интеллект, ранее созданный для того, чтобы ... 9.4 10 15
    Info! Золотая раздача, скачанное не засчитывается.
    Торрент: Зарегистрирован [2015-09-17 05:19] · скачан: 329 раз
    Статус: √ проверено
    Размер: 15.43 GB
    Как cкачать? Как скачать Мстители: Эра Альтрона через торрент | qTorrent

    % Раздел Тема Автор DL S | L
    Фильмы (Blu-ray, BD-Remux, HDDVD) [ 39.22 GB ] Мстители: Эра Альтрона [2015 Blu-ray CEE 1080p] Бумер Скачать
    1 | 0
    Фильмы [HD 720p, 1080p] (Хороший звук DUB, MVO) [ 9.73 GB ] Мстители: Эра Альтрона [2015 BDRip 720p DUB Blu-ray CEE] Ворон Скачать
    1 | 0

    28-11-2019 20:33  

    Отключить всю рекламу на сайте

      Дорогой пользователь! Огромная просьба, поблагодарите релизера, оцените раздачу и оставьте свои комментарий, если Вы скачали Мстители: Эра Альтрона через торрент бесплатно! Внесите свою лепту в развитие PiratBit!
      Комментировать посты могут только пользователи прошедшие не сложную регистрацию
      Показать сообщения:    

      Мстители: Эра Альтрона через торрент
      Скачать бесплатно Мстители: Эра Альтрона
      Мстители: Эра Альтрона скачать торрент
      Мстители: Эра Альтрона смотреть онлайн
      Cкачать фильм Мстители: Эра Альтрона бесплатно
      Мстители: Эра Альтрона скачать торрент в хорошем качестве
      Мстители: Эра Альтрона смотреть онлайн бесплатно в хорошем качестве


      Вы не можете начинать темы
      Вы не можете отвечать на сообщения
      Вы не можете редактировать свои сообщения
      Вы не можете удалять свои сообщения
      Вы не можете голосовать в опросах
      Вы не можете прикреплять файлы к сообщениям
      Вы можете скачивать файлы