Ссылка на приватное зеркало всего за 1$. Внимание количество ограничено!!!

OK

1+1

iTunes

мы

OK

1

WEB-DLRip

Джокер

Пифагор

Ведьмак / The Witcher сериал

Лицензия

ПШазам

ОК

Оно 2

iTunes

30
pack

Вам бонус

ВАЖНО

!!Акция!!

Alien_RageХит недели

RePack

Resident Evil 21

ИГРА 18+

pack

RePack

jed

RePack

fifa19

RePack

Assassins Creed: Odyssey

RePack

NEED FOR SPEED™ PAYBACK

4 сезон

9 сезон

Бесстыжие 9 сезон

Все сериалы

все сериалы на PB.wtf

RePack

FAR CRY 5
  

Храброе сердце / Ritter Rost - Eisenhart und voll verbeult (Томас Боденштайн, Хьюберт Вейланд, Нина Велс / Thomas Bodenstein, Hubert Weiland, Nina Wels) [2013, мультфильм, приключения, семейный, DVD5] R5 pb.wtf

Храброе сердце через торрент pb.wtf

Размер: 3.98 GB | Добавлен: 4 года 4 мес. назад | Торрент скачан:13 раз
Скачать  

14-04-2014 08:51 Храброе сердце Скачать торрент  


Храброе сердце / Ritter Rost - Eisenhart und voll verbeult
«Приключения в тридесятом королевстве»
Страна: Германия
Студия: Caligari Film- und Fernsehproduktions GmbH, Universum Film (UFA), Zweites Deutsches Fernsehen (ZDF)
Жанр: мультфильм, приключения, семейный
Год выпуска: 2013
Мировая премьера: 10 января 2013
Российская премьера: 30 января 2014, 3D
Украинская премьера: 23 января 2014, 3D
Дата выхода DVD: 20 марта 2014
Продолжительность: 01:20:05
Перевод: Профессиональный (дублированный) [Лицензия]
Cубтитры: украинские
Оригинальная аудиодорожка: нет
Режиссер: Томас Боденштайн, Хьюберт Вейланд, Нина Велс / Thomas Bodenstein, Hubert Weiland, Nina Wels
Роли озвучивали: Рик Каваниан, Каролин Кебекус, Кристоф Мария Хербст, Том Герхардт, Детлеф Редингер, Дастин Земмельрогге, Хартмут Нойгебауер, Ульрих Фрэнк, Пьер Питерс-Арнольдс, Анита Хёфер
Описание: В одном сказочном королевстве, где есть мудрый король, прекрасная принцесса и храбрый рыцарь, как это всегда бывает в сказках, появился хитрый и коварный злодей, задумавший стать новым правителем. Единственный кто может помешать его планам — находчивый рыцарь Расти. Пусть пока у него не все получается, и многие не воспринимают его всерьез, он обязательно станет настоящим героем и вместе со своими верными друзьями спасет королевство.
Бонусы: нет

Релиз группы:
Качество: DVD5 R5
Формат: DVD-Video
Видео кодек: MPEG2
Аудио кодек: AC3
Видео: PAL 16:9 (720x576(0.662)) MPEG Video, 25,000 кадр/сек, 6861 Кбит/сек
Аудио: Russian (Dolby AC3, 6 ch) 448 Кбит/сек, 48,0 КГц



Title: Hrabroe.serdce.2013.D.DVD5
Size: 3.98 Gb ( 4 172 486,00 KBytes ) - DVD-5
Enabled regions: 1, 2, 3, 4, 5, 6, 7, 8

VTS_01 :
Play Length: 00:00:16
Video: PAL 16:9 (720x576) VBR, Auto Letterboxed
Audio:
Russian (Dolby AC3, 2 ch)

VTS_02 :
Play Length: 01:20:05
Video: PAL 16:9 (720x576) VBR, Auto Letterboxed
Audio:
Russian (Dolby AC3, 6 ch)
Subtitles:
Ukrainian

* Menus Information *

VIDEO_TS Menu
Video:
NTSC 4:3 (720x480) VBR
Auto Pan&Scan, Auto Letterboxed
Russian Language Unit :
Title Menu

VTS_01 Menu
Video:
NTSC 4:3 (720x480) VBR
Auto Pan&Scan, Auto Letterboxed
Language Unit :
Subpicture Menu
Angle menu
Language Unit :

Language Unit :
Subpicture Menu
Language Unit :
Subpicture Menu
Language Unit :
Subpicture Menu

VTS_02 Menu
Video:
PAL 16:9 (720x576) VBR
Auto Letterboxed
Audio:
Not specified (Dolby AC3, 6 ch)
Russian Language Unit :
Root Menu
Chapter (PTT) Menu
Общее
Полное имя : D:\Новинки 2014\Hrabroe.serdce.2013.D.DVD5\VIDEO_TS\VTS_02_1.VOB
Формат : MPEG-PS
Размер файла : 1024 Мбайт
Продолжительность : 19 м.
Режим общего битрейта : Переменный
Общий поток : 7457 Кбит/сек

Видео
Идентификатор : 224 (0xE0)
Формат : MPEG Video
Версия формата : Version 2
Профиль формата : Main@Main
Параметр BVOP формата : Да
Параметр матрицы формата : Выборочная
Параметр GOP формата : M=3, N=15
Продолжительность : 19 м.
Вид битрейта : Переменный
Битрейт : 6861 Кбит/сек
Максимальный битрейт : 8000 Кбит/сек
Ширина : 720 пикселей
Высота : 576 пикселей
Соотношение сторон : 16:9
Частота кадров : 25,000 кадров/сек
Стандарт вещания : PAL
Цветовое пространство : YUV
Субдискретизация насыщенности : 4:2:0
Битовая глубина : 8 бит
Тип развёртки : Прогрессивная
Метод сжатия : С потерями
Бит/(Пиксели*Кадры) : 0.662
Временной код первого кадра : 00:00:00:00
Оригинал временного кода : Group of pictures header
Размер потока : 942 Мбайт (92%)

Аудио
Идентификатор : 189 (0xBD)-128 (0x80)
Формат : AC-3
Формат/Информация : Audio Coding 3
Расширение режима : CM (complete main)
Параметр Endianness формата : Big
Режим смешивания : DVD-Video
Продолжительность : 19 м.
Вид битрейта : Постоянный
Битрейт : 448 Кбит/сек
Каналы : 6 каналов
Расположение каналов : Front: L C R, Side: L R, LFE
Частота : 48,0 КГц
Битовая глубина : 16 бит
Метод сжатия : С потерями
Размер потока : 61,5 Мбайт (6%)

Текст
Идентификатор : 189 (0xBD)-32 (0x20)
Формат : RLE
Формат/Информация : Run-length encoding
Режим смешивания : DVD-Video










pb.wtf



Скачать Храброе сердце через торрент http://i60.fastpic.ru/big/2014/0413/24/880612e2fa9b485e9f3c72edffdbdc24.jpg Скачать фильм Храброе сердце через торрент бесплантно в хорошем качестве Описание: В одном сказочном королевстве, где есть мудрый король, прекрасная принцесса и храбрый рыцарь, как это всегда бывает в сказках, ... 10 10 3
Торрент: Зарегистрирован [2015-09-17 16:40] · скачан: 13 раз
Статус: √ проверено
Размер: 3.98 GB
Как cкачать? Как скачать Храброе сердце через торрент | qTorrent

28-11-2019 20:33  

Отключить всю рекламу на сайте

    Дорогой пользователь! Огромная просьба, поблагодарите релизера, оцените раздачу и оставьте свои комментарий, если Вы скачали Храброе сердце через торрент бесплатно! Внесите свою лепту в развитие PiratBit!
    Комментировать посты могут только пользователи прошедшие не сложную регистрацию
    Показать сообщения:    

    Храброе сердце через торрент
    Скачать бесплатно Храброе сердце
    Храброе сердце скачать торрент
    Храброе сердце смотреть онлайн
    Cкачать фильм Храброе сердце бесплатно
    Храброе сердце скачать торрент в хорошем качестве
    Храброе сердце смотреть онлайн бесплатно в хорошем качестве


    Вы не можете начинать темы
    Вы не можете отвечать на сообщения
    Вы не можете редактировать свои сообщения
    Вы не можете удалять свои сообщения
    Вы не можете голосовать в опросах
    Вы не можете прикреплять файлы к сообщениям
    Вы можете скачивать файлы