Ссылка на приватное зеркало всего за 1$. Внимание количество ограничено!!!

OK

1+1

iTunes

мы

OK

1

WEB-DLRip

Джокер

Пифагор

Ведьмак / The Witcher сериал

iTunes

ПШазам

ОК

Оно 2

iTunes

30
pack

Вам бонус

ВАЖНО

!!Акция!!

Alien_RageХит недели

RePack

Resident Evil 21

ИГРА 18+

pack

RePack

jed

RePack

fifa19

RePack

Assassins Creed: Odyssey

RePack

NEED FOR SPEED™ PAYBACK

4 сезон

9 сезон

Бесстыжие 9 сезон

Все сериалы

все сериалы на PB.wtf

RePack

FAR CRY 5
  

Дорога в Голливуд / The D Train (Эндрю Моугел, Джеррад Пол) [2015 г., комедия, HDRip, Профессиональный многоголосый закадровый "iTunes"] pb.wtf

Дорога в Голливуд через торрент pb.wtf

Размер: 707 MB | Добавлен: 4 года 4 мес. назад | Торрент скачан:87 раз
Скачать  

17-09-2015 18:22 Дорога в Голливуд Скачать торрент  

Дорога в Голливуд / The D Train
Год выпуска: 2015
Страна: Великобритания, США / Ealing Studios, Electric Dynamite, Londinium Films
Жанр: комедия
Продолжительность: 01:41:10
Перевод: Профессиональный многоголосый закадровый (iTunes)

Режиссер: Эндрю Моугел, Джеррад Пол

IMDB 5.20 (3119)


В ролях: Джек Блэк, Джеймс Марсден, Кэтрин Хан, Джеффри Тэмбор, Расселл Познер, Генри Жебровский, Кайл Борнхаймер, Майк Уайт, Коррина Лайонс, Донна ДюПлантье

Описание: Герои этой истории — бывшие одноклассники, решившие устроить встречу выпускников. Один из них, в школе занимавшийся организацией мероприятий, решает сделать двадцатилетний юбилей выпуска самым запоминающимся в истории и стремится изо всех сил привезти на него самого популярного парня в школе, а ныне — актера-неудачника, снимающегося главным образом в рекламе, да и то не в самой лучшей.

Качество: HDRip
Формат: AVI
Видео кодек: XviD
Аудио кодек: MP3
Видео: 640x264 (2.42:1), 23.976 fps, XviD build 50 ~839 kbps avg, 0.21 bit/pixel
Аудио: 48 kHz, MPEG Layer 3, 2 ch, ~128.00 kbps avg

Общее
Полное имя : F:\кино\Дорога в Голливуд.2015.HDRip.700mb.avi
Формат : AVI
Формат/Информация : Audio Video Interleave
Размер файла : 707 Мбайт
Продолжительность : 1 ч. 41 м.
Общий поток : 977 Кбит/сек
Программа кодирования : VirtualDubMod 1.5.10.3 | www.virtualdub-fr.org || (build 2550/release)
Библиотека кодирования : VirtualDubMod build 2550/release

Видео
Идентификатор : 0
Формат : MPEG-4 Visual
Профиль формата : Advanced Simple@L5
Параметр BVOP формата : 2
Параметр QPel формата : Нет
Параметр GMC формата : Без точки перехода
Параметр матрицы формата : Default (H.263)
Идентификатор кодека : XVID
Идентификатор кодека/Подсказка : XviD
Продолжительность : 1 ч. 41 м.
Битрейт : 840 Кбит/сек
Ширина : 640 пикселей
Высота : 264 пикселя
Соотношение сторон : 2,40:1
Частота кадров : 23,976 кадра/сек
Цветовое пространство : YUV
Субдискретизация насыщенности : 4:2:0
Битовая глубина : 8 бит
Тип развёртки : Прогрессивная
Метод сжатия : С потерями
Бит/(Пиксели*Кадры) : 0.207
Размер потока : 608 Мбайт (86%)
Библиотека кодирования : XviD 1.2.1 (UTC 2008-12-04)

Аудио
Идентификатор : 1
Формат : MPEG Audio
Версия формата : Version 1
Профиль формата : Layer 3
Режим : Joint stereo
Расширение режима : MS Stereo
Идентификатор кодека : 55
Идентификатор кодека/Подсказка : MP3
Продолжительность : 1 ч. 41 м.
Вид битрейта : Постоянный
Битрейт : 128 Кбит/сек
Каналы : 2 канала
Частота : 48,0 КГц
Метод сжатия : С потерями
Размер потока : 92,6 Мбайт (13%)
Выравнивание : Соединение по промежуткам
Продолжительность промежутка : 42 мс. (1,00 видеокадр)
Время предзагрузки промежутка : 504 мс.
Библиотека кодирования : LAME3.99r
Настройки программы : -m j -V 4 -q 2 -lowpass 17 -b 128

pb.wtf



Скачать Дорога в Голливуд через торрент http://pic1.kartinco.top/images/10/35731.jpg Скачать фильм Дорога в Голливуд через торрент бесплантно в хорошем качестве Описание: Герои этой истории — бывшие одноклассники, решившие устроить встречу выпускников. Один из них, в школе занимавшийся организацией ... 6.4 10 8
Торрент: Зарегистрирован [2015-09-17 18:22] · скачан: 87 раз
Статус: √ проверено
Размер: 707 MB
Как cкачать? Как скачать Дорога в Голливуд через торрент | qTorrent

% Раздел Тема Автор DL S | L
Фильмы 2015 [DVDrip, WEB-DLRip, HDrip] [ 2.04 GB ] Дорога в Голливуд / The D Train [2015 BDRip / Ворон Скачать
1 | 0
Фильмы 2015 [DVDrip, WEB-DLRip, HDrip] [ 1.41 GB ] Дорога в Голливуд / The D Train [2015 BDRip [] Twi7ter Скачать
1 | 0
Фильмы [HD 720p, 1080p] (Хороший звук DUB, MVO) [ 3.81 GB ] Дорога в Голливуд / The D Train [2015 BDRip 720p MVO] +ENG GEKADOL Скачать
1 | 0
Фильмы 2015 [DVDrip, WEB-DLRip, HDrip] [ 1.28 GB ] Дорога в Голливуд / The D Train [2015 BDRip-AVC] MVO potroks Скачать
1 | 0
Фильмы 2015 [DVDrip, WEB-DLRip, HDrip] [ 1.37 GB ] Дорога в Голливуд / The D Train [2015 HDRip MVO] GEKADOL Скачать
1 | 0
T Фильмы [HD 720p, 1080p] (Хороший звук DUB, MVO) [ 7.78 GB ] Дорога в Голливуд / The D Train [2015 BDRip 1080p MVO] + ENG GEKADOL Скачать
1 | 0

28-11-2019 20:33  

Отключить всю рекламу на сайте

    Дорогой пользователь! Огромная просьба, поблагодарите релизера, оцените раздачу и оставьте свои комментарий, если Вы скачали Дорога в Голливуд через торрент бесплатно! Внесите свою лепту в развитие PiratBit!
    Комментировать посты могут только пользователи прошедшие не сложную регистрацию
    Показать сообщения:    

    Дорога в Голливуд через торрент
    Скачать бесплатно Дорога в Голливуд
    Дорога в Голливуд скачать торрент
    Дорога в Голливуд смотреть онлайн
    Cкачать фильм Дорога в Голливуд бесплатно
    Дорога в Голливуд скачать торрент в хорошем качестве
    Дорога в Голливуд смотреть онлайн бесплатно в хорошем качестве


    Вы не можете начинать темы
    Вы не можете отвечать на сообщения
    Вы не можете редактировать свои сообщения
    Вы не можете удалять свои сообщения
    Вы не можете голосовать в опросах
    Вы не можете прикреплять файлы к сообщениям
    Вы можете скачивать файлы