Ссылка на приватное зеркало всего за 1$. Внимание количество ограничено!!!

OK

1+1

iTunes

мы

OK

1

WEB-DLRip

Джокер

Пифагор

Ведьмак / The Witcher сериал

iTunes

ПШазам

ОК

Оно 2

iTunes

30
pack

Вам бонус

ВАЖНО

!!Акция!!

Alien_RageХит недели

RePack

Resident Evil 21

ИГРА 18+

pack

RePack

jed

RePack

fifa19

RePack

Assassins Creed: Odyssey

RePack

NEED FOR SPEED™ PAYBACK

4 сезон

9 сезон

Бесстыжие 9 сезон

Все сериалы

все сериалы на PB.wtf

RePack

FAR CRY 5
  

Дорога в Голливуд / The D Train (Эндрю Моугел / Andrew Mogel, Джеррад Пол / Jarrad Paul) [2015, комедия, BDRip-AVC от potroks] MVO pb.wtf

Дорога в Голливуд через торрент pb.wtf

Размер: 1.28 GB | Добавлен: 4 года 4 мес. назад | Торрент скачан:174 раза
Скачать  

17-09-2015 19:07 Дорога в Голливуд Скачать торрент  

Дорога в Голливуд / The D Train
«Every reunion needs a hero»
Год выпуска: 2015
Страна: Великобритания, США / Ealing Studios, Londinium Films...
Жанр: комедия
Продолжительность: 01:41:10
Перевод: Профессиональный (многоголосый) [iTunes]
Субтитры: русские
Навигация по главам: есть
Режиссер: Эндрю Моугел / Andrew Mogel, Джеррад Пол / Jarrad Paul
В ролях:

Джек Блэк (Dan Landsman), Джеймс Марсден (Oliver Lawless), Кэтрин Хан (Stacey Landsman), Джеффри Тэмбор (Bill Shurmur), Расселл Познер (Zach Landsman), Генри Жебровский (Craig), Кайл Борнхаймер (Randy), Майк Уайт (Jerry), Коррина Лайонс (Lucy), Донна ДюПлантье (Taj), Charlotte Gale (Renina), Денис Уильямсон (Alyssa)
Описание: Герои этой истории - бывшие одноклассники, решившие устроить встречу выпускников. Один из них, в школе занимавшийся организацией мероприятий, решает сделать двадцатилетний юбилей выпуска самым запоминающимся в истории и стремится изо всех сил привезти на него самого популярного парня в школе, а ныне - актера-неудачника, снимающегося главным образом в рекламе, да и то не в самой лучшей.

Качество: BDRip-AVC
Формат: MKV
Видео кодек: AVC
Аудио кодек: AC3
Видео: AVC, 1008x420 (2.40:1), 1619 kbps, 23,976 fps, 0,159 bit/pixel
Аудио: AC3 / 2.0 / 48 kHz / 192 kbps / 16 bit

Релиз группы:
Автор рипа: potroks

Код:

General
Unique ID                                : 174859156648388915083873457101055954283 (0x838CA60998E82A17B6793F954A478D6B)
Complete name                            : N:\Комедия\Doroga.v.Gollivyd.2015.RUS.BDRip.x264.-HELLYWOOD.mkv
Format                                   : Matroska
Format version                           : Version 4 / Version 2
File size                                : 1.28 GiB
Duration                                 : 1h 41mn
Overall bit rate                         : 1 811 Kbps
Movie name                               : The D Train (2015) - HELLYWOOD
Encoded date                             : UTC 2015-09-17 17:16:16
Writing application                      : mkvmerge v5.9.0 ('On The Loose') built on Dec 15 2012 16:39:58
Writing library                          : libebml v1.3.0 + libmatroska v1.4.0

Video
ID                                       : 1
Format                                   : AVC
Format/Info                              : Advanced Video Codec
Format profile                           : High@L4.1
Format settings, CABAC                   : Yes
Format settings, ReFrames                : 12 frames
Codec ID                                 : V_MPEG4/ISO/AVC
Duration                                 : 1h 41mn
Bit rate                                 : 1 619 Kbps
Width                                    : 1 008 pixels
Height                                   : 420 pixels
Display aspect ratio                     : 2.40:1
Frame rate                               : 23.976 fps
Color space                              : YUV
Chroma subsampling                       : 4:2:0
Bit depth                                : 8 bits
Scan type                                : Progressive
Bits/(Pixel*Frame)                       : 0.159
Stream size                              : 1.12 GiB (87%)
Title                                    : potroks
Writing library                          : x264 core 148 r2597M e86f3a1
Encoding settings                        : cabac=1 / ref=12 / deblock=1:-2:-2 / analyse=0x3:0x133 / me=umh / subme=11 / psy=1 / psy_rd=1.00:0.10 / mixed_ref=1 / me_range=48 / chroma_me=1 / trellis=2 / 8x8dct=1 / cqm=0 / deadzone=21,11 / fast_pskip=0 / chroma_qp_offset=-3 / threads=10 / lookahead_threads=2 / sliced_threads=0 / nr=0 / decimate=1 / interlaced=0 / bluray_compat=0 / constrained_intra=0 / bframes=13 / b_pyramid=2 / b_adapt=2 / b_bias=0 / direct=3 / weightb=1 / open_gop=0 / weightp=2 / keyint=250 / keyint_min=23 / scenecut=40 / intra_refresh=0 / rc=2pass / mbtree=0 / bitrate=1619 / ratetol=1.0 / qcomp=0.70 / qpmin=0 / qpmax=69 / qpstep=4 / cplxblur=20.0 / qblur=0.5 / ip_ratio=1.40 / pb_ratio=1.30 / aq=1:0.80
Language                                 : English
Default                                  : Yes
Forced                                   : No

Audio
ID                                       : 2
Format                                   : AC-3
Format/Info                              : Audio Coding 3
Mode extension                           : CM (complete main)
Codec ID                                 : A_AC3
Duration                                 : 1h 41mn
Bit rate mode                            : Constant
Bit rate                                 : 192 Kbps
Channel(s)                               : 2 channels
Channel positions                        : Front: L R
Sampling rate                            : 48.0 KHz
Bit depth                                : 16 bits
Compression mode                         : Lossy
Stream size                              : 139 MiB (11%)
Title                                    : MVO | DD 2.0 @ 192 kbps - iTunes
Language                                 : Russian
Default                                  : Yes
Forced                                   : No

Text
ID                                       : 3
Format                                   : UTF-8
Codec ID                                 : S_TEXT/UTF8
Codec ID/Info                            : UTF-8 Plain Text
Language                                 : Russian
Default                                  : No
Forced                                   : No

Menu
00:00:00.000                             : en:(01)00:00:00:000
00:07:45.298                             : en:(02)00:07:45:298
00:15:51.783                             : en:(03)00:15:51:783
00:21:32.249                             : en:(04)00:21:32:249
00:29:54.459                             : en:(05)00:29:54:459
00:36:50.541                             : en:(06)00:36:50:541
00:42:57.074                             : en:(07)00:42:57:074
00:49:53.782                             : en:(08)00:49:53:782
00:56:40.563                             : en:(09)00:56:40:563
01:03:37.521                             : en:(10)01:03:37:521
01:12:43.399                             : en:(11)01:12:43:399
01:19:02.612                             : en:(12)01:19:02:612
01:26:47.911                             : en:(13)01:26:47:911
01:35:41.234                             : en:(14)01:35:41:234

pb.wtf



Скачать Дорога в Голливуд через торрент http://i48.fastpic.ru/big/2015/0917/02/4caee31ffc46295b4b226cb436029902.png Скачать фильм Дорога в Голливуд через торрент бесплантно в хорошем качестве Описание: Герои этой истории - бывшие одноклассники, решившие устроить встречу выпускников. Один из них, в школе занимавшийся организацией ... 8.2 10 5
Info! Серебряная раздача, засчитывается только 50% скачанного.
Торрент: Зарегистрирован [2015-09-17 19:07] · скачан: 174 раз
Статус: √ проверено
Размер: 1.28 GB
Как cкачать? Как скачать Дорога в Голливуд через торрент | qTorrent

% Раздел Тема Автор DL S | L
Фильмы [HD 720p, 1080p] (Хороший звук DUB, MVO) [ 3.81 GB ] Дорога в Голливуд / The D Train [2015 BDRip 720p MVO] +ENG GEKADOL Скачать
1 | 0
Фильмы 2015 [DVDrip, WEB-DLRip, HDrip] [ 1.37 GB ] Дорога в Голливуд / The D Train [2015 HDRip MVO] GEKADOL Скачать
1 | 0
T Фильмы [HD 720p, 1080p] (Хороший звук DUB, MVO) [ 7.78 GB ] Дорога в Голливуд / The D Train [2015 BDRip 1080p MVO] + ENG GEKADOL Скачать
1 | 0

28-11-2019 20:33  

Отключить всю рекламу на сайте

    Дорогой пользователь! Огромная просьба, поблагодарите релизера, оцените раздачу и оставьте свои комментарий, если Вы скачали Дорога в Голливуд через торрент бесплатно! Внесите свою лепту в развитие PiratBit!
    Комментировать посты могут только пользователи прошедшие не сложную регистрацию
    Показать сообщения:    

    Дорога в Голливуд через торрент
    Скачать бесплатно Дорога в Голливуд
    Дорога в Голливуд скачать торрент
    Дорога в Голливуд смотреть онлайн
    Cкачать фильм Дорога в Голливуд бесплатно
    Дорога в Голливуд скачать торрент в хорошем качестве
    Дорога в Голливуд смотреть онлайн бесплатно в хорошем качестве


    Вы не можете начинать темы
    Вы не можете отвечать на сообщения
    Вы не можете редактировать свои сообщения
    Вы не можете удалять свои сообщения
    Вы не можете голосовать в опросах
    Вы не можете прикреплять файлы к сообщениям
    Вы можете скачивать файлы