Ссылка на приватное зеркало нашего сайта всего за 1$. Внимание количество ограничено!!!

2 сезон

iTunes

1 сезон

1

iTunes

iTunes

iTunes

1 сезон

RePack

30

ИГРА 18+

pack

ВАЖНО

!!Акция!!

Alien_RageХит недели

RePack

MK11
pack

Забери бонус

RePack

jed

!!Акция!!

Alien_Rage

RePack

fifa19

RePack

Assassins Creed: Odyssey

RePack

NEED FOR SPEED™ PAYBACK

4 сезон

9 сезон

Бесстыжие 9 сезон

Все сериалы

все сериалы на PB.wtf

RePack

FAR CRY 5
  

Любовь и милосердие / Love & Mercy (Уильям Полад) [2014, драма, биография, музыка, BDRip 1080p, Дубляж][Официальный] pb.wtf

Любовь и милосердие через торрент pb.wtf

Размер: 8.9 GB | Добавлен: 5 лет 1 мес. назад | Торрент скачан:29 раз
Скачать  

18-09-2015 06:57 Любовь и милосердие Скачать торрент  


Любовь и милосердие / Love & Mercy
««The Life, Love and Genius of Brian Wilson»»

ИНФОРМАЦИЯ:
Год выпуска:2014
Страна: США
Жанр: драма, биография, музыка
Продолжительность: 02:01:34
Перевод: Дубляж[Официальный]
Режиссер: Уильям Полад

В Ролях:


Элизабет Бэнкс (Melinda Ledbetter), Пол Джаматти (Dr. Eugene Landy), Джон Кьюсак (Brian Future), Пол Дано (Brian Past), Кенни Вормолд (Dennis Wilson), Джейк Эйбел (Mike Love), Джоэнна Гоуинг (Audree Wilson), Бретт Даверн (Carl Wilson), Грэхэм Роджерс (Al Jardine), Брайан Уилсон (играет самого себя, хроника), Эрин Майя Дарк (Marilyn Wilson), Тайсон Риттер (Hipster #1)

Описание:
История затворнического автора песен Beach Boys и музыканта Брайана Уилсона, от его успехов с чрезвычайно влиятельными оркестровыми популярными альбомами к его нервному срыву и последующему столкновению с врачом, доктором Юджином Лэнди.

  • Мировая премьера:7 сентября 2014

    ТЕХ.ДАННЫЕ:
    Качество: BDRip 1080p
    Формат: MKV
    Видео: AVC, 1920x1080 (16:9), 8784 kbps, 23,976 fps, 0,177 bpp
    Аудио №1: русский / AC3 / 2.0 / 48 kHz / 192 kbps / 16 bit ||
    Аудио №2: английский / DTS / 5.1 / 48 kHz / 1510 kbps / 24 bit
    Навигация по главам: есть


    General
    Unique ID : 209399770369806364818714509138721189248 (0x9D88EDC6830FC3678724B8D9E1472D80)
    Complete name : D:\Торенты\Liub0B.i.m1L0CePd1e.2015.D.BDRip.1080p.mkv
    Format : Matroska
    Format version : Version 2
    File size : 8.90 GiB
    Duration : 2h 1mn
    Overall bit rate : 10.5 Mbps
    Encoded date : UTC 2015-09-17 10:21:55
    Writing application : mkvmerge v8.3.0 ('Over the Horizon') 64bit
    Writing library : libebml v1.3.1 + libmatroska v1.4.2

    Video
    ID : 1
    Format : AVC
    Format/Info : Advanced Video Codec
    Format profile : High@L4.1
    Format settings, CABAC : Yes
    Format settings, ReFrames : 4 frames
    Codec ID : V_MPEG4/ISO/AVC
    Duration : 2h 1mn
    Bit rate : 8 784 Kbps
    Width : 1 920 pixels
    Height : 1 080 pixels
    Display aspect ratio : 16:9
    Frame rate : 23.976 fps
    Color space : YUV
    Chroma subsampling : 4:2:0
    Bit depth : 8 bits
    Scan type : Progressive
    Bits/(Pixel*Frame) : 0.177
    Stream size : 7.28 GiB (82%)
    Writing library : x264 core 148 r2597 e86f3a1
    Encoding settings : cabac=1 / ref=4 / deblock=1:0:0 / analyse=0x3:0x133 / me=umh / subme=7 / psy=1 / psy_rd=1.00:0.00 / mixed_ref=1 / me_range=16 / chroma_me=1 / trellis=1 / 8x8dct=1 / cqm=0 / deadzone=21,11 / fast_pskip=0 / chroma_qp_offset=-2 / threads=18 / lookahead_threads=3 / sliced_threads=0 / nr=0 / decimate=1 / interlaced=0 / bluray_compat=0 / constrained_intra=0 / bframes=3 / b_pyramid=2 / b_adapt=1 / b_bias=0 / direct=1 / weightb=1 / open_gop=0 / weightp=2 / keyint=250 / keyint_min=23 / scenecut=40 / intra_refresh=0 / rc_lookahead=40 / rc=2pass / mbtree=1 / bitrate=8784 / ratetol=1.0 / qcomp=0.60 / qpmin=0 / qpmax=69 / qpstep=4 / cplxblur=20.0 / qblur=0.5 / ip_ratio=1.40 / aq=1:1.00
    Language : English
    Default : Yes
    Forced : No

    Audio #1
    ID : 2
    Format : AC-3
    Format/Info : Audio Coding 3
    Mode extension : CM (complete main)
    Codec ID : A_AC3
    Duration : 2h 1mn
    Bit rate mode : Constant
    Bit rate : 192 Kbps
    Channel(s) : 2 channels
    Channel positions : Front: L R
    Sampling rate : 48.0 KHz
    Bit depth : 16 bits
    Compression mode : Lossy
    Stream size : 167 MiB (2%)
    Language : Russian
    Default : Yes
    Forced : No

    Audio #2
    ID : 3
    Format : DTS
    Format/Info : Digital Theater Systems
    Codec ID : A_DTS
    Duration : 2h 1mn
    Bit rate mode : Constant
    Bit rate : 1 510 Kbps
    Channel(s) : 6 channels
    Channel positions : Front: L C R, Side: L R, LFE
    Sampling rate : 48.0 KHz
    Bit depth : 24 bits
    Compression mode : Lossy
    Stream size : 1.28 GiB (14%)
    Language : English
    Default : No
    Forced : No

    Menu
    00:00:00.000 : en:00:00:00.000
    00:06:06.157 : en:00:06:06.157
    00:16:59.727 : en:00:16:59.727
    00:24:51.573 : en:00:24:51.573
    00:29:10.165 : en:00:29:10.165
    00:37:29.789 : en:00:37:29.789
    00:44:41.053 : en:00:44:41.053
    00:53:03.806 : en:00:53:03.806
    01:00:06.478 : en:01:00:06.478
    01:06:58.598 : en:01:06:58.598
    01:14:35.846 : en:01:14:35.846
    01:23:04.646 : en:01:23:04.646
    01:30:08.528 : en:01:30:08.528
    01:38:18.476 : en:01:38:18.476
    01:47:52.841 : en:01:47:52.841
    01:54:33.325 : en:01:54:33.325
    Скриншоты:


    © Оформление by Ворон
    pb.wtf



  • Скачать Любовь и милосердие через торрент http://pic.kartinco.top/images/6/ordi9.jpg Скачать фильм Любовь и милосердие через торрент бесплантно в хорошем качестве Описание: История затворнического автора песен Beach Boys и музыканта Брайана Уилсона, от его успехов с чрезвычайно влиятельными ... 10 10 2
    Info! Золотая раздача, скачанное не засчитывается.
    Торрент: Зарегистрирован [2015-09-18 06:57] · скачан: 29 раз
    Статус: √ проверено
    Размер: 8.9 GB
    Как cкачать? Как скачать Любовь и милосердие через торрент | qTorrent

    28-11-2019 20:33  

    Отключить всю рекламу на сайте

      Дорогой пользователь! Огромная просьба, поблагодарите релизера, оцените раздачу и оставьте свои комментарий, если Вы скачали Любовь и милосердие через торрент бесплатно! Внесите свою лепту в развитие PiratBit!
      Комментировать посты могут только пользователи прошедшие не сложную регистрацию
      Показать сообщения:    

      Любовь и милосердие через торрент
      Скачать бесплатно Любовь и милосердие
      Любовь и милосердие скачать торрент
      Любовь и милосердие смотреть онлайн
      Cкачать фильм Любовь и милосердие бесплатно
      Любовь и милосердие скачать торрент в хорошем качестве
      Любовь и милосердие смотреть онлайн бесплатно в хорошем качестве


      Вы не можете начинать темы
      Вы не можете отвечать на сообщения
      Вы не можете редактировать свои сообщения
      Вы не можете удалять свои сообщения
      Вы не можете голосовать в опросах
      Вы не можете прикреплять файлы к сообщениям
      Вы можете скачивать файлы