Ссылка на приватное зеркало всего за 1$. Внимание количество ограничено!!!

OK

1+1

iTunes

мы

OK

1

WEB-DLRip

Джокер

Пифагор

Ведьмак / The Witcher сериал

iTunes

ПШазам

ОК

Оно 2

iTunes

30
pack

Вам бонус

ВАЖНО

!!Акция!!

Alien_RageХит недели

RePack

Resident Evil 21

ИГРА 18+

pack

RePack

jed

RePack

fifa19

RePack

Assassins Creed: Odyssey

RePack

NEED FOR SPEED™ PAYBACK

4 сезон

9 сезон

Бесстыжие 9 сезон

Все сериалы

все сериалы на PB.wtf

RePack

FAR CRY 5
  

Мстители: Эра Альтрона (Джосс Уидон) [2015 г., фантастика, боевик, приключения, HDRip, Дубляж [iTunes]] pb.wtf

Мстители: Эра Альтрона через торрент pb.wtf

Размер: 751 MB | Добавлен: 4 года 4 мес. назад | Торрент скачан:146 раз
Скачать  

09-09-2015 21:40 Мстители: Эра Альтрона Скачать торрент  

Мстители: Эра Альтрона / Avengers: Age of Ultron
Год выпуска: 2015
Страна: США / Marvel Studios Inc.
Жанр: фантастика, боевик, приключения
Продолжительность: 02:21:18
Перевод: Дубляж [iTunes]
Субтитры: русские (полные + форсированные)

Режиссер: Джосс Уидон
Продюссер: Кевин Файги, Виктория Алонсо, Митчелл Белл
Сценарий: Джосс Уидон, Стэн Ли, Джек Кирби

Бюджет: $250 000 000
Премьера в мире: 13 апреля 2015

IMDB 7.80 (283 582)



В ролях: Роберт Дауни мл., Крис Хемсворт, Крис Эванс, Скарлетт Йоханссон, Марк Руффало, Джереми Реннер, Аарон Тейлор-Джонсон, Элизабет Олсен, Джеймс Спэйдер, Сэмюэл Л. Джексон

Описание: Человечество на грани уничтожения. На этот раз людям угрожает Альтрон — искусственный интеллект, ранее созданный для того, чтобы защищать Землю от любых угроз. Однако, главной угрозой он посчитал человечество. Международная организация Щ. И. Т. распалась, и теперь мир не способен справиться с таким мощным врагом, потому люди вновь обращаются за помощью к Величайшим Героям Земли — Мстителям. Однако Альтрон слишком силен, и есть большая вероятность, что даже им не удастся остановить начало надвигающейся Эры Альтрона, где нет места для людей...

Доп. информация: Фильм был назван в честь серии комиксов Marvel «Эра Альтрона» 2013-го года

Качество: HDRip
Формат: AVI
Видео кодек: XviD
Аудио кодек: MP3
Видео: 606 Кбит/сек, 640х268, 23,976 кадра/сек
Аудио: 128 Кбит/сек, 2 канала, 44,1 КГц
Субтитры: русские srt (полные + форсированные)






Формат : AVI
Формат/Информация : Audio Video Interleave
Размер файла : 751 Мбайт
Продолжительность : 2 ч. 21 м.
Общий поток : 743 Кбит/сек
Библиотека кодирования : VirtualDub build 35390/release

Видео
Идентификатор : 0
Формат : MPEG-4 Visual
Профиль формата : Advanced Simple@L5
Параметр BVOP формата : 2
Параметр QPel формата : Нет
Параметр GMC формата : Без точки перехода
Параметр матрицы формата : Default (H.263)
Идентификатор кодека : XVID
Идентификатор кодека/Подсказка : XviD
Продолжительность : 2 ч. 21 м.
Битрейт : 606 Кбит/сек
Ширина : 640 пикселей
Высота : 268 пикселей
Соотношение сторон : 2,40:1
Частота кадров : 23,976 кадра/сек
Цветовое пространство : YUV
Субдискретизация насыщенности : 4:2:0
Битовая глубина : 8 бит
Тип развёртки : Прогрессивная
Метод сжатия : С потерями
Бит/(Пиксели*Кадры) : 0.147
Размер потока : 613 Мбайт (82%)
Библиотека кодирования : XviD 64

Аудио
Идентификатор : 1
Формат : MPEG Audio
Версия формата : Version 1
Профиль формата : Layer 3
Режим : Joint stereo
Идентификатор кодека : 55
Идентификатор кодека/Подсказка : MP3
Продолжительность : 2 ч. 21 м.
Вид битрейта : Постоянный
Битрейт : 128 Кбит/сек
Каналы : 2 канала
Частота : 44,1 КГц
Метод сжатия : С потерями
Размер потока : 129 Мбайт (17%)
Выравнивание : Разделение по промежуткам
Продолжительность промежутка : 42 мс. (1,00 видеокадр)
Время предзагрузки промежутка : 500 мс.


Мстители: Эра Альтрона скачать торрент


pb.wtf



Скачать Мстители: Эра Альтрона через торрент http://i65.fastpic.ru/big/2015/0910/f8/517ae25d32131a74a339f44718a801f8.jpg Скачать фильм Мстители: Эра Альтрона через торрент бесплантно в хорошем качестве Описание: Человечество на грани уничтожения. На этот раз людям угрожает Альтрон — искусственный интеллект, ранее созданный для того, чтобы ... 9.9 10 14
Торрент: Зарегистрирован [2015-09-18 07:40] · скачан: 146 раз
Статус: √ проверено
Размер: 751 MB
Как cкачать? Как скачать Мстители: Эра Альтрона через торрент | qTorrent

% Раздел Тема Автор DL S | L
Ultra HD (UHD: 2K, 4K, 8K) — видео сверхвысокой чёткости [ 66.6 GB ] Мстители: Эра Альтрона / Avengers: Age of Ultron [2015 UHD Blu-ray 2160p] AVO+DUB [] bober100 Скачать
1 | 0
Фильмы (HD 720p, 1080p) (48-60 fps) [ 6.73 GB ] Мстители: Эра Альтрона / Avengers: Age of Ultron [2015 BDRip - HEVC 1080p 12 bit 60 FPS] - dd2d3 Скачать
1 | 0
Фильмы [HD 720p, 1080p] (Хороший звук DUB, MVO) [ 7.78 GB ] Мстители: Эра Альтрона / Avengers: Age of Ultron [2015 BDRip 1080p HEVC ()] Мичман37 Скачать
5 | 0
Фильмы [HD 720p, 1080p] (Хороший звук DUB, MVO) [ 5.77 GB ] Мстители: Эра Альтрона / Avengers: Age of Ultron [2015 BDRip 720p от _denis_100 / NNNB] DUB AVO _denis_100 Скачать
1 | 0
Ultra HD (UHD: 2K, 4K, 8K) — видео сверхвысокой чёткости [ 25.53 GB ] Мстители: Эра Альтрона / Avengers: Age of Ultron [2015 UHD BDRip 2160p] [SDR] DUB sheker187 Скачать
1 | 0
Ultra HD (UHD: 2K, 4K, 8K) — видео сверхвысокой чёткости [ 26.64 GB ] Мстители: Эра Альтрона / Avengers: Age of Ultron [2015 UHD BDRip 2160p] DUB + AVO [А.Гаврилов] sheker187 Скачать
1 | 0
Ultra HD (UHD: 2K, 4K, 8K) — видео сверхвысокой чёткости [ 62.72 GB ] Мстители: Эра Альтрона / Avengers: Age of Ultron [2015 UHD BDRemux 2160p] [HDR] AVO+DUB [] bober100 Скачать
1 | 0

28-11-2019 20:33  

Отключить всю рекламу на сайте

08-10-2015 14:48 Мстители: Эра Альтрона Скачать торрент  

нафига писать что есть субтитры если их нет проверял на трёх разных плеерахpb.wtf



08-10-2015 18:36 Мстители: Эра Альтрона Скачать торрент  

клюв
не пробовал VLC плеерpb.wtf



    Дорогой пользователь! Огромная просьба, поблагодарите релизера, оцените раздачу и оставьте свои комментарий, если Вы скачали Мстители: Эра Альтрона через торрент бесплатно! Внесите свою лепту в развитие PiratBit!
    Комментировать посты могут только пользователи прошедшие не сложную регистрацию
    Показать сообщения:    

    Мстители: Эра Альтрона через торрент
    Скачать бесплатно Мстители: Эра Альтрона
    Мстители: Эра Альтрона скачать торрент
    Мстители: Эра Альтрона смотреть онлайн
    Cкачать фильм Мстители: Эра Альтрона бесплатно
    Мстители: Эра Альтрона скачать торрент в хорошем качестве
    Мстители: Эра Альтрона смотреть онлайн бесплатно в хорошем качестве


    Вы не можете начинать темы
    Вы не можете отвечать на сообщения
    Вы не можете редактировать свои сообщения
    Вы не можете удалять свои сообщения
    Вы не можете голосовать в опросах
    Вы не можете прикреплять файлы к сообщениям
    Вы можете скачивать файлы