Ссылка на приватное зеркало всего за 1$. Внимание количество ограничено!!!

OK

1+1

iTunes

мы

OK

1

WEB-DLRip

Джокер

Пифагор

Ведьмак / The Witcher сериал

iTunes

ПШазам

ОК

Оно 2

iTunes

30
pack

Вам бонус

ВАЖНО

!!Акция!!

Alien_RageХит недели

RePack

Resident Evil 21

ИГРА 18+

pack

RePack

jed

RePack

fifa19

RePack

Assassins Creed: Odyssey

RePack

NEED FOR SPEED™ PAYBACK

4 сезон

9 сезон

Бесстыжие 9 сезон

Все сериалы

все сериалы на PB.wtf

RePack

FAR CRY 5
  

Золушка (Кеннет Брана / Kenneth Branagh) [2015, фэнтези, драма, мелодрама, BDRip-AVC от potroks] DUB Лицензия pb.wtf

Золушка через торрент pb.wtf

Раздают: 2 [ 0 KB/s ]
Размер: 2.18 GB | Добавлен: 4 года 4 мес. назад | Торрент скачан:283 раза
Скачать  

13-08-2015 11:05 Золушка Скачать торрент  

Золушка / Cinderella
«Midnight is just the beginning»
Год выпуска: 2015
Страна: США, Великобритания / Walt Disney Pictures...
Жанр: фэнтези, драма, мелодрама, семейный
Продолжительность: 01:45:22
Перевод: Дубляж [лицензия BD EUR]
Субтитры: русские (полные + форс.), английские
Навигация по главам: есть
Режиссер: Кеннет Брана / Kenneth Branagh
В ролях:

Лили Джеймс (Cinderella), Кейт Бланшетт (Stepmother), Ричард Мэдден (Prince), Хелена Бонем Картер (Fairy Godmother), Нонсо Анози (Captain), Стеллан Скарсгард (Grand Duke), Софи МакШера (Drisella), Холлидей Грейнджер (Anastasia), Дерек Джекоби (King), Бен Чаплин (Ella's Father), Хейли Этвелл (Ella's Mother), Роб Брайдон (Master Phineus)
Описание: Отец молодой девушки по имени Элла, овдовев, женится во второй раз, и вскоре Элла оказывается один на один с жадными и завистливыми новыми родственницами - мачехой Леди Тремэйн и ее дочерьми - Анастасией и Дризеллой. Из хозяйки дома она превращается в служанку, вечно испачканную золой, за что и получает от своих сварливых сводных сестриц прозвище - Золушка. Несмотря на злоключения, выпавшие на ее долю, Золушка не отчаивается, ведь даже в самые тяжелые моменты находится что-то, что помогает ей думать о хорошем: например, случайная встреча на лесной тропинке с прекрасным юношей. Элла даже не предполагает, что встретилась с самим принцем, и что вскоре Фея-крестная навсегда поменяет её жизнь к лучшему.

Качество: BDRip-AVC
Формат: MKV
Видео кодек: AVC
Аудио кодек: AC3
Видео: AVC, 1032x432 (2.40:1), 2066 kbps, 23,976 fps, 0.193 bit/pixel
Аудио №1: AC3 / 5.1 / 48 kHz / 448 kbps / 16 bit | RUS
Аудио №2: AC3 / 5.1 / 48 kHz / 448 kbps / 16 bit | ENG
Релиз группы:
Автор рипа: potroks

Код:

Общее
Уникальный идентификатор : 192257738889826158610173458737337634212 (0x90A37E5EFB6273E88A8CF0935B3A8DA4)
Полное имя : N:\Фэнтези\Zolushka.2015.DUAL.BDRip.x264.-HELLYWOOD.mkv
Формат : Matroska
Версия формата : Version 4 / Version 2
Размер файла : 2,18 Гбайт
Продолжительность : 1 ч. 45 м.
Общий поток : 2963 Кбит/сек
Название фильма : Cinderella (2015) - HELLYWOOD
Дата кодирования : UTC 2015-08-13 10:57:08
Программа кодирования : mkvmerge v5.9.0 ('On The Loose') built on Dec 15 2012 16:39:58
Библиотека кодирования : libebml v1.3.0 + libmatroska v1.4.0

Видео
Идентификатор : 1
Формат : AVC
Формат/Информация : Advanced Video Codec
Профиль формата : High@L4.1
Параметр CABAC формата : Да
Параметр ReFrames формата : 10 кадров
Идентификатор кодека : V_MPEG4/ISO/AVC
Продолжительность : 1 ч. 45 м.
Битрейт : 2066 Кбит/сек
Ширина : 1032 пикселя
Высота : 432 пикселя
Соотношение сторон : 2,40:1
Режим частоты кадров : Постоянный
Частота кадров : 23,976 кадра/сек
Цветовое пространство : YUV
Субдискретизация насыщенности : 4:2:0
Битовая глубина : 8 бит
Тип развёртки : Прогрессивная
Бит/(Пиксели*Кадры) : 0.193
Размер потока : 1,48 Гбайт (68%)
Заголовок : potroks
Библиотека кодирования : x264 core 146 r2538 121396c
Настройки программы : cabac=1 / ref=10 / deblock=1:-2:-2 / analyse=0x3:0x113 / me=umh / subme=11 / psy=1 / psy_rd=1.00:0.05 / mixed_ref=1 / me_range=48 / chroma_me=1 / trellis=2 / 8x8dct=1 / cqm=0 / deadzone=21,11 / fast_pskip=0 / chroma_qp_offset=-3 / threads=9 / lookahead_threads=2 / sliced_threads=0 / nr=0 / decimate=0 / interlaced=0 / bluray_compat=0 / constrained_intra=0 / bframes=11 / b_pyramid=2 / b_adapt=2 / b_bias=0 / direct=3 / weightb=1 / open_gop=0 / weightp=2 / keyint=250 / keyint_min=23 / scenecut=40 / intra_refresh=0 / rc_lookahead=60 / rc=2pass / mbtree=0 / bitrate=2066 / ratetol=1.0 / qcomp=0.70 / qpmin=0 / qpmax=69 / qpstep=4 / cplxblur=20.0 / qblur=0.5 / vbv_maxrate=14000 / vbv_bufsize=14000 / nal_hrd=none / filler=0 / ip_ratio=1.35 / pb_ratio=1.25 / aq=1:0.80
Язык : English
Default : Да
Forced : Нет

Аудио #1
Идентификатор : 2
Формат : AC-3
Формат/Информация : Audio Coding 3
Расширение режима : CM (complete main)
Параметр Endianness формата : Big
Идентификатор кодека : A_AC3
Продолжительность : 1 ч. 45 м.
Вид битрейта : Постоянный
Битрейт : 448 Кбит/сек
Каналы : 6 каналов
Расположение каналов : Front: L C R, Side: L R, LFE
Частота : 48,0 КГц
Метод сжатия : С потерями
Размер потока : 338 Мбайт (15%)
Заголовок : Dub | DD 5.1 @ 448 kbps - Blu-Ray EUR
Язык : Russian
Default : Да
Forced : Нет

Аудио #2
Идентификатор : 3
Формат : AC-3
Формат/Информация : Audio Coding 3
Расширение режима : CM (complete main)
Параметр Endianness формата : Big
Идентификатор кодека : A_AC3
Продолжительность : 1 ч. 45 м.
Вид битрейта : Постоянный
Битрейт : 448 Кбит/сек
Каналы : 6 каналов
Расположение каналов : Front: L C R, Side: L R, LFE
Частота : 48,0 КГц
Метод сжатия : С потерями
Размер потока : 338 Мбайт (15%)
Заголовок : Original | DD 5.1 @ 448 kbps
Язык : English
Default : Нет
Forced : Нет

Текст #1
Идентификатор : 4
Формат : UTF-8
Идентификатор кодека : S_TEXT/UTF8
Идентификатор кодека/Информация : UTF-8 Plain Text
Заголовок : Forced
Язык : Russian
Default : Да
Forced : Нет

Текст #2
Идентификатор : 5
Формат : UTF-8
Идентификатор кодека : S_TEXT/UTF8
Идентификатор кодека/Информация : UTF-8 Plain Text
Язык : Russian
Default : Нет
Forced : Нет

Текст #3
Идентификатор : 6
Формат : UTF-8
Идентификатор кодека : S_TEXT/UTF8
Идентификатор кодека/Информация : UTF-8 Plain Text
Язык : English
Default : Нет
Forced : Нет

Меню
00:00:00.000 : en:(01)00:00:00:000
00:06:35.435 : en:(02)00:06:35:435
00:13:58.586 : en:(03)00:13:58:586
00:17:56.115 : en:(04)00:17:56:115
00:22:05.574 : en:(05)00:22:05:574
00:26:36.760 : en:(06)00:26:36:760
00:31:17.875 : en:(07)00:31:17:875
00:34:37.699 : en:(08)00:34:37:699
00:38:39.400 : en:(09)00:38:39:400
00:42:54.697 : en:(10)00:42:54:697
00:52:52.751 : en:(11)00:52:52:751
01:03:13.956 : en:(12)01:03:13:956
01:10:54.667 : en:(13)01:10:54:667
01:16:46.350 : en:(14)01:16:46:350
01:20:41.752 : en:(15)01:20:41:752
01:25:36.088 : en:(16)01:25:36:088
01:28:27.176 : en:(17)01:28:27:176
01:39:11.528 : en:(18)01:39:11:528
01:45:21.814 : en:(19)01:45:21:814

pb.wtf



Скачать Золушка через торрент http://i72.fastpic.ru/big/2015/0813/dd/d30146fd1614316e380f235c9f09cfdd.png Скачать фильм Золушка через торрент бесплантно в хорошем качестве Описание: Отец молодой девушки по имени Элла, овдовев, женится во второй раз, и вскоре Элла оказывается один на один с жадными и ... 10 10 5
Торрент: Зарегистрирован [2015-09-18 07:43] · скачан: 283 раз
Статус: √ проверено
Размер: 2.18 GB
Как cкачать? Как скачать Золушка через торрент | qTorrent

% Раздел Тема Автор DL S | L
Ultra HD (UHD: 2K, 4K, 8K) — видео сверхвысокой чёткости [ 15.32 GB ] Золушка / Cinderella [2015 UHD BDRip 2160p] DUB [] sheker187 Скачать
1 | 0
Ultra HD (UHD: 2K, 4K, 8K) — видео сверхвысокой чёткости [ 51.72 GB ] Золушка / Cinderella [2015 UHD BDRemux 2160p] DUB [] sheker187 Скачать
1 | 0
Фильмы [HD 720p, 1080p] (Хороший звук DUB, MVO) [ 4.37 GB ] Золушка [2015 BDRip 720p] DUB potroks Скачать
1 | 0
Фильмы 2015 [DVDrip, WEB-DLRip, HDrip] [ 1.46 GB ] Золушка [2015 BDRip] DUB Twi7ter Скачать
1 | 0
Иностранные мультфильмы [ 700 MB ] Золушка: Полный вперед! / Cendrillon au Far West [2012 мультфильм HDRip DUB лицензия] makarevich Скачать
1 | 0

28-11-2019 20:33  

Отключить всю рекламу на сайте

    Дорогой пользователь! Огромная просьба, поблагодарите релизера, оцените раздачу и оставьте свои комментарий, если Вы скачали Золушка через торрент бесплатно! Внесите свою лепту в развитие PiratBit!
    Комментировать посты могут только пользователи прошедшие не сложную регистрацию
    Показать сообщения:    

    Золушка через торрент
    Скачать бесплатно Золушка
    Золушка скачать торрент
    Золушка смотреть онлайн
    Cкачать фильм Золушка бесплатно
    Золушка скачать торрент в хорошем качестве
    Золушка смотреть онлайн бесплатно в хорошем качестве


    Вы не можете начинать темы
    Вы не можете отвечать на сообщения
    Вы не можете редактировать свои сообщения
    Вы не можете удалять свои сообщения
    Вы не можете голосовать в опросах
    Вы не можете прикреплять файлы к сообщениям
    Вы можете скачивать файлы