Ссылка на приватное зеркало всего за 1$. Внимание количество ограничено!!!

iTunes

iTunes

iTunes

1

iTunes

iTunes

iTunes

WEBRip

iTunes

30
pack

$ от Little Big

ВАЖНО

!!Акция!!

Alien_RageХит недели

RePack

Resident Evil 21

ИГРА 18+

pack

RePack

jed

!!Акция!!

Alien_Rage

RePack

fifa19

RePack

Assassins Creed: Odyssey

RePack

NEED FOR SPEED™ PAYBACK

4 сезон

9 сезон

Бесстыжие 9 сезон

Все сериалы

все сериалы на PB.wtf

RePack

FAR CRY 5
  

Форсаж 7 / Furious Seven (Джеймс Ван / James Wan) [2015, боевик, триллер, криминал, BDRip-AVC от potroks] [Расширенная версия] DUB Лицензия pb.wtf

Форсаж 7 через торрент pb.wtf

Размер: 1.46 GB | Добавлен: 4 года 10 мес. назад | Торрент скачан:282 раза
Скачать  

29-07-2015 08:12 Форсаж 7 Скачать торрент  

Форсаж 7 / Furious Seven
«Месть не знает границ»
Год выпуска: 2015
Страна: США / Universal Pictures...
Жанр: боевик, триллер, криминал
Продолжительность: 02:19:54
Перевод: Дубляж [BD EUR]
Субтитры: русские (полные + форс.)
Навигация по главам: есть
Режиссер: Джеймс Ван / James Wan
В ролях:

Вин Дизель (Dominic Toretto), Пол Уокер (Brian O'Conner), Джейсон Стэйтем (Deckard Shaw), Мишель Родригес (Letty), Дуэйн Джонсон (Hobbs), Тайриз Гибсон (Roman), Лудакрис (Tej), Натали Эммануэль (Ramsey), Джордана Брюстер (Mia), Курт Рассел (Mr. Nobody), Тони Джа (Kiet), Джимон Хонсу (Jakande)
Описание: Они покорили Токио и Рио, Лос-Анджелес и Лондон. Но мир больше не играет по их правилам. Зной арабских пустынь, неприлично высокие небоскребы, миллионы долларов на колесах и очень, очень знаменитый злодей. Скорость не знает границ.

Качество: BDRip-AVC
Формат: MKV
Видео кодек: AVC
Аудио кодек: AC3
Видео: AVC, 888x370 (2.40:1), 1302 kbps, 23,976 fps, 0,165 bit/pixel
Аудио: AC3 / 2.0 / 48 kHz / 192 kbps / 16 bit
Релиз группы:
Автор рипа: potroks

Код:

Общее
Уникальный идентификатор : 212386351540657820520118212923119490106 (0x9FC81F9886F8024F9E1F55956705D43A)
Полное имя : Forsazh.7.2015.EC.RUS.BDRip.x264.-HELLYWOOD.mkv
Формат : Matroska
Версия формата : Version 4 / Version 2
Размер файла : 1,46 Гбайт
Продолжительность : 2 ч. 19 м.
Общий поток : 1495 Кбит/сек
Название фильма : Furious 7 (2015) [Extended] - HELLYWOOD
Дата кодирования : UTC 2015-08-03 17:53:01
Программа кодирования : mkvmerge v5.9.0 ('On The Loose') built on Dec 15 2012 16:39:58
Библиотека кодирования : libebml v1.3.0 + libmatroska v1.4.0

Видео
Идентификатор : 1
Формат : AVC
Формат/Информация : Advanced Video Codec
Профиль формата : High@L4.1
Параметр CABAC формата : Да
Параметр ReFrames формата : 12 кадров
Идентификатор кодека : V_MPEG4/ISO/AVC
Продолжительность : 2 ч. 19 м.
Битрейт : 1302 Кбит/сек
Ширина : 888 пикселей
Высота : 370 пикселей
Соотношение сторон : 2,40:1
Режим частоты кадров : Постоянный
Частота кадров : 23,976 кадра/сек
Цветовое пространство : YUV
Субдискретизация насыщенности : 4:2:0
Битовая глубина : 8 бит
Тип развёртки : Прогрессивная
Бит/(Пиксели*Кадры) : 0.165
Размер потока : 1,24 Гбайт (85%)
Заголовок : potroks
Библиотека кодирования : x264 core 146 r2538 121396c
Настройки программы : cabac=1 / ref=12 / deblock=1:-2:-2 / analyse=0x3:0x113 / me=umh / subme=11 / psy=1 / psy_rd=1.03:0.08 / mixed_ref=1 / me_range=48 / chroma_me=1 / trellis=2 / 8x8dct=1 / cqm=0 / deadzone=21,11 / fast_pskip=0 / chroma_qp_offset=-3 / threads=9 / lookahead_threads=2 / sliced_threads=0 / nr=0 / decimate=1 / interlaced=0 / bluray_compat=0 / constrained_intra=0 / bframes=13 / b_pyramid=2 / b_adapt=2 / b_bias=0 / direct=3 / weightb=1 / open_gop=0 / weightp=2 / keyint=250 / keyint_min=23 / scenecut=40 / intra_refresh=0 / rc_lookahead=60 / rc=2pass / mbtree=0 / bitrate=1302 / ratetol=1.0 / qcomp=0.70 / qpmin=0 / qpmax=69 / qpstep=4 / cplxblur=20.0 / qblur=0.5 / vbv_maxrate=14000 / vbv_bufsize=14000 / nal_hrd=none / filler=0 / ip_ratio=1.35 / pb_ratio=1.25 / aq=1:0.80
Язык : English
Default : Да
Forced : Нет

Аудио
Идентификатор : 2
Формат : AC-3
Формат/Информация : Audio Coding 3
Расширение режима : CM (complete main)
Параметр Endianness формата : Big
Идентификатор кодека : A_AC3
Продолжительность : 2 ч. 19 м.
Вид битрейта : Постоянный
Битрейт : 192 Кбит/сек
Каналы : 2 канала
Расположение каналов : Front: L R
Частота : 48,0 КГц
Метод сжатия : С потерями
Размер потока : 192 Мбайт (13%)
Заголовок : Dub | DD 2.0 @ 192 kbps - Blu-Ray EUR
Язык : Russian
Default : Да
Forced : Нет

Текст #1
Идентификатор : 3
Формат : UTF-8
Идентификатор кодека : S_TEXT/UTF8
Идентификатор кодека/Информация : UTF-8 Plain Text
Заголовок : Forced
Язык : Russian
Default : Да
Forced : Нет

Текст #2
Идентификатор : 4
Формат : UTF-8
Идентификатор кодека : S_TEXT/UTF8
Идентификатор кодека/Информация : UTF-8 Plain Text
Заголовок : Blu-Ray
Язык : Russian
Default : Нет
Forced : Нет

Меню
00:00:00.000 : :Chapter 01
00:04:39.946 : :Chapter 02
00:11:29.480 : :Chapter 03
00:16:39.288 : :Chapter 04
00:25:54.051 : :Chapter 05
00:33:43.895 : :Chapter 06
00:41:44.585 : :Chapter 07
00:46:41.005 : :Chapter 08
00:52:10.710 : :Chapter 09
01:02:31.414 : :Chapter 10
01:06:16.679 : :Chapter 11
01:14:16.868 : :Chapter 12
01:22:34.032 : :Chapter 13
01:33:21.136 : :Chapter 14
01:38:27.484 : :Chapter 15
01:45:40.082 : :Chapter 16
01:53:54.452 : :Chapter 17
01:58:31.061 : :Chapter 18
02:06:19.863 : :Chapter 19
02:11:31.173 : :Chapter 20
02:19:54.593 : :Chapter 21

pb.wtf



Скачать Форсаж 7 через торрент http://i69.fastpic.ru/big/2015/0729/38/6b8f8d28a6abbb5ccd0fce6f6b546538.png Скачать фильм Форсаж 7 через торрент бесплантно в хорошем качестве Описание: Они покорили Токио и Рио, Лос-Анджелес и Лондон. Но мир больше не играет по их правилам. Зной арабских пустынь, неприлично ... 9.2 10 26
Торрент: Зарегистрирован [2015-09-18 07:45] · скачан: 282 раз
Статус: √ проверено
Размер: 1.46 GB
Как cкачать? Как скачать Форсаж 7 через торрент | qTorrent

% Раздел Тема Автор DL S | L
Фильмы 2015 [DVDrip, WEB-DLRip, HDrip] [ 1.47 GB ] Форсаж 7 / Furious Seven [2015 BDRip] DUB Twi7ter Скачать
1 | 0
Фильмы 2015 [DVDrip, WEB-DLRip, HDrip] [ 1.46 GB ] Форсаж 7 / Furious Seven [2015 BDRip] DUB Twi7ter Скачать
1 | 0
Фильмы [HD 720p, 1080p] (Хороший звук DUB, MVO) [ 6.28 GB ] Форсаж 7 / Furious Seven [2015 BDRip 720p] [Расширенная версия] DUB potroks Скачать
1 | 0
Фильмы [HD 720p, 1080p] (Хороший звук DUB, MVO) [ 15.56 GB ] Форсаж 7 / Furious Seven [2015 BDRip 1080p] DUB - / Extended Cut Newton5 Скачать
1 | 0
Фильмы 2015 [DVDrip, WEB-DLRip, HDrip] [ 2.91 GB ] Форсаж 7 / Furious Seven / Furious 7 [2015 BDRip-AVC от sokol_ok] [Расширенная версия] DUB sokol_ok Скачать
3 | 0
Фильмы 2015 [DVDrip, WEB-DLRip, HDrip] [ 1.45 GB ] Форсаж 7 / Furious Seven / Furious 7 [2015 BDRip-AVC от sokol_ok] [Расширенная версия] DUB sokol_ok Скачать
2 | 0
Фильмы [HD 720p, 1080p] (Хороший звук DUB, MVO) [ 9.34 GB ] Форсаж 7 / Furious Seven [2015 BDRip 720p Расширенная версия] DUB _KaisiK_ Скачать
1 | 0


Последний раз редактировалось: potroks (2015-08-03 18:12), всего редактировалось 2 раз(а)

28-11-2019 20:33  

Отключить всю рекламу на сайте

29-07-2015 12:10 Форсаж 7 Скачать торрент  

potroks,спасибо за рип!pb.wtf



03-08-2015 18:07 Форсаж 7 Скачать торрент  

замена на лицензиюpb.wtf



19-10-2015 08:21 Форсаж 7 Скачать торрент  

Создатели фильма забыли,что снимают фильм про скорость,драйв,гонки и крутые тачки!Теперь они снимают понторезов в мясном масштабе!pb.wtf



    Дорогой пользователь! Огромная просьба, поблагодарите релизера, оцените раздачу и оставьте свои комментарий, если Вы скачали Форсаж 7 через торрент бесплатно! Внесите свою лепту в развитие PiratBit!
    Комментировать посты могут только пользователи прошедшие не сложную регистрацию
    Показать сообщения:    

    Форсаж 7 через торрент
    Скачать бесплатно Форсаж 7
    Форсаж 7 скачать торрент
    Форсаж 7 смотреть онлайн
    Cкачать фильм Форсаж 7 бесплатно
    Форсаж 7 скачать торрент в хорошем качестве
    Форсаж 7 смотреть онлайн бесплатно в хорошем качестве


    Вы не можете начинать темы
    Вы не можете отвечать на сообщения
    Вы не можете редактировать свои сообщения
    Вы не можете удалять свои сообщения
    Вы не можете голосовать в опросах
    Вы не можете прикреплять файлы к сообщениям
    Вы можете скачивать файлы