Ссылка на приватное зеркало всего за 1$. Внимание количество ограничено!!!

OK

1+1

iTunes

мы

OK

1

WEB-DLRip

Джокер

Пифагор

Ведьмак / The Witcher сериал

iTunes

ПШазам

ОК

Оно 2

iTunes

30
pack

Вам бонус

ВАЖНО

!!Акция!!

Alien_RageХит недели

RePack

Resident Evil 21

ИГРА 18+

pack

RePack

jed

RePack

fifa19

RePack

Assassins Creed: Odyssey

RePack

NEED FOR SPEED™ PAYBACK

4 сезон

9 сезон

Бесстыжие 9 сезон

Все сериалы

все сериалы на PB.wtf

RePack

FAR CRY 5
  

Форсаж 7 / Furious Seven (Джеймс Ван) [2015 г., боевик, триллер, криминал, HDRip,Театральная версия, Дубляж] pb.wtf

Форсаж 7 через торрент pb.wtf

Размер: 2.18 GB | Добавлен: 4 года 4 мес. назад | Торрент скачан:13 раз
Скачать  

26-07-2015 18:10 Форсаж 7 Скачать торрент  

Форсаж 7 / Furious Seven
Год выпуска: 2015
Страна: США / Universal Pictures, Media Rights Capital, China Film Co.
Жанр: боевик, триллер, криминал
Продолжительность: 02:17:19
Перевод: Дубляж

Режиссер: Джеймс Ван

IMDB 7.50 (186 852)


В ролях: Вин Дизель, Пол Уокер, Джейсон Стэйтем, Мишель Родригес, Дуэйн Джонсон, Тайриз Гибсон, Лудакрис, Натали Эммануэль, Джордана Брюстер, Курт Рассел

Описание: Они покорили Токио и Рио, Лос-Анджелес и Лондон. Но мир больше не играет по их правилам. Зной арабских пустынь, неприлично высокие небоскребы, миллионы долларов на колесах и очень, очень знаменитый злодей. Скорость не знает границ.

Доп. информация: Звук получен заменой участков, включая отзвуки и эха, по всем каналам. Как ни странно оригинальный звук, если судить по спектру, весьма убог, посему менялись только те участки, где спектр был выше

Качество: HDRip
Формат: AVI
Видео кодек: XviD
Аудио кодек: AC3
Видео: 720x304 (2.37:1), 23.976 fps, XviD build 50 ~1819 kbps avg, 0.35 bit/pixel
Аудио: 48 kHz, AC3 Dolby Digital, 3/2 (L,C,R,l,r) + LFE ch, ~448 kbps
Релиз от:

Общее
Полное имя : F:\кино\Форсаж 7.2015.HDRip.avi
Формат : AVI
Формат/Информация : Audio Video Interleave
Профиль формата : OpenDML
Размер файла : 2,18 Гбайт
Продолжительность : 2 ч. 17 м.
Общий поток : 2274 Кбит/сек
Программа кодирования : VirtualDubMod 1.5.10.3 | www.virtualdub-fr.org || (build 2550/release)
Библиотека кодирования : VirtualDubMod build 2550/release

Видео
Идентификатор : 0
Формат : MPEG-4 Visual
Профиль формата : Advanced Simple@L5
Параметр BVOP формата : 2
Параметр QPel формата : Нет
Параметр GMC формата : Без точки перехода
Параметр матрицы формата : Default (H.263)
Идентификатор кодека : XVID
Идентификатор кодека/Подсказка : XviD
Продолжительность : 2 ч. 17 м.
Битрейт : 1814 Кбит/сек
Ширина : 720 пикселей
Высота : 304 пикселя
Соотношение сторон : 2,35:1
Частота кадров : 23,976 кадра/сек
Цветовое пространство : YUV
Субдискретизация насыщенности : 4:2:0
Битовая глубина : 8 бит
Тип развёртки : Прогрессивная
Метод сжатия : С потерями
Бит/(Пиксели*Кадры) : 0.346
Размер потока : 1,74 Гбайт (80%)
Библиотека кодирования : XviD 1.2.1 (UTC 2008-12-04)

Аудио
Идентификатор : 1
Формат : AC-3
Формат/Информация : Audio Coding 3
Расширение режима : CM (complete main)
Параметр Endianness формата : Big
Идентификатор кодека : 2000
Продолжительность : 2 ч. 17 м.
Вид битрейта : Постоянный
Битрейт : 448 Кбит/сек
Каналы : 6 каналов
Расположение каналов : Front: L C R, Side: L R, LFE
Частота : 48,0 КГц
Метод сжатия : С потерями
Размер потока : 440 Мбайт (20%)
Выравнивание : Разделение по промежуткам
Продолжительность промежутка : 42 мс. (1,00 видеокадр)
Время предзагрузки промежутка : 500 мс.

pb.wtf
!Ворон писал(а):

Звук: Получен заменой участков, включая отвуки и эха, по всем каналам. Как ни странно оригинальный звук, если судить по спектру, весьма убог, посему менялись только те участки, где спектр был выше.
T временная



Скачать Форсаж 7 через торрент http://pic1.kartinco.top/images/10/fr41k.jpg Скачать фильм Форсаж 7 через торрент бесплантно в хорошем качестве Описание: Они покорили Токио и Рио, Лос-Анджелес и Лондон. Но мир больше не играет по их правилам. Зной арабских пустынь, неприлично ... 9 10 12
Торрент: Зарегистрирован [2015-09-18 07:47] · скачан: 13 раз
Статус: √ проверено
Размер: 2.18 GB
Как cкачать? Как скачать Форсаж 7 через торрент | qTorrent

% Раздел Тема Автор DL S | L
Фильмы [HD 720p, 1080p] (Хороший звук DUB, MVO) [ 5.79 GB ] Форсаж 7 / Furious Seven [2015 BDRip 1080p HEVC ] [Extended Cut] Мичман37 Скачать
2 | 0
Ultra HD (UHD: 2K, 4K, 8K) — видео сверхвысокой чёткости [ 68.17 GB ] Форсаж 7 / Furious Seven [2015 UHD BDRemux 2160p] DUB + 4xAVO [Расширенная версия] sheker187 Скачать
1 | 0
Фильмы [HD 720p, 1080p] (Хороший звук DUB, MVO) [ 8.37 GB ] Форсаж 7 / Furious Seven [2015 BDRip 720p от _denis_100 / NNNB] DUB 4xAVO _denis_100 Скачать
1 | 0
Фильмы (Blu-ray, BD-Remux, HDDVD) [ 25.65 GB ] Форсаж 7 / Furious Seven [Theatrical Cut] [2015 BD Remux 1080p - ] -Lexx- Скачать
1 | 0
Фильмы (WEB-DL 720p, 1080p) [ 4.7 GB ] Форсаж 7 / Furious Seven [2015 WEB-DL 1080p Russia] Ворон Скачать
1 | 0
Фильмы (HD 720p, 1080p) (48-60 fps) [ 4.71 GB ] Форсаж 7 / Furious Seven [2015 BDRip 720p 60fps от еnvy / NNNB] DUB еnvy Скачать
1 | 0
Фильмы 2015 [DVDrip, WEB-DLRip, HDrip] [ 1.46 GB ] Форсаж 7 / Furious Seven [2015 BDRip-AVC] [Расширенная версия] DUB potroks Скачать
1 | 0


Последний раз редактировалось: coc900 (2015-07-27 17:56), всего редактировалось 1 раз

28-11-2019 20:33  

Отключить всю рекламу на сайте

27-07-2015 17:56 Форсаж 7 Скачать торрент  

Ворон писал(а):

Звук: Получен заменой участков, включая (отвуки-в этом слове допущена ошибка) и эха, по всем каналам. Как ни странно оригинальный звук, если судить по спектру, весьма убог, посему менялись только те участки, где спектр был выше.
T временная .И к чему дублировать эту информацию,это все указано в релизеpb.wtf



    Дорогой пользователь! Огромная просьба, поблагодарите релизера, оцените раздачу и оставьте свои комментарий, если Вы скачали Форсаж 7 через торрент бесплатно! Внесите свою лепту в развитие PiratBit!
    Комментировать посты могут только пользователи прошедшие не сложную регистрацию
    Показать сообщения:    

    Форсаж 7 через торрент
    Скачать бесплатно Форсаж 7
    Форсаж 7 скачать торрент
    Форсаж 7 смотреть онлайн
    Cкачать фильм Форсаж 7 бесплатно
    Форсаж 7 скачать торрент в хорошем качестве
    Форсаж 7 смотреть онлайн бесплатно в хорошем качестве


    Вы не можете начинать темы
    Вы не можете отвечать на сообщения
    Вы не можете редактировать свои сообщения
    Вы не можете удалять свои сообщения
    Вы не можете голосовать в опросах
    Вы не можете прикреплять файлы к сообщениям
    Вы можете скачивать файлы