Ссылка на приватное зеркало всего за 1$. Внимание количество ограничено!!!

OK

1+1

iTunes

мы

OK

1

WEB-DLRip

Джокер

Пифагор

Ведьмак / The Witcher сериал

iTunes

ПШазам

ОК

Оно 2

iTunes

30
pack

Вам бонус

ВАЖНО

!!Акция!!

Alien_RageХит недели

RePack

Resident Evil 21

ИГРА 18+

pack

RePack

jed

RePack

fifa19

RePack

Assassins Creed: Odyssey

RePack

NEED FOR SPEED™ PAYBACK

4 сезон

9 сезон

Бесстыжие 9 сезон

Все сериалы

все сериалы на PB.wtf

RePack

FAR CRY 5
  

Форсаж 7 / Furious Seven (Джеймс Ван) [2015, боевик, триллер, криминал, BDRip-AVC, Дубляж] iTunes(Расширенная версия) pb.wtf

Форсаж 7 через торрент pb.wtf

Размер: 2.66 GB | Добавлен: 4 года 4 мес. назад | Торрент скачан:850 раз
Скачать  

22-07-2015 15:58 Форсаж 7 Скачать торрент  


Форсаж 7 / Furious Seven
««Месть не знает границ»»

ИНФОРМАЦИЯ:
Год выпуска:2015
Страна: США
Жанр: боевик, триллер, криминал
Продолжительность: 02:19:54
Перевод: Дубляж - [Лицензия / iTunes]
Субтитры: английские,
Режиссер: Джеймс Ван

В Ролях:


Вин Дизель (Dominic Toretto), Пол Уокер (Brian O'Conner), Джейсон Стэйтем (Deckard Shaw), Мишель Родригес (Letty), Дуэйн Джонсон (Hobbs), Тайриз Гибсон (Roman), Лудакрис (Tej), Натали Эммануэль (Ramsey), Джордана Брюстер (Mia), Курт Рассел (Mr. Nobody), Тони Джа (Kiet), Джимон Хонсу (Jakande)

Описание:
Они покорили Токио и Рио, Лос-Анджелес и Лондон. Но мир больше не играет по их правилам. Зной арабских пустынь, неприлично высокие небоскребы, миллионы долларов на колесах и очень, очень знаменитый злодей. Скорость не знает границ.

  • Мировая премьера:16 марта 2015

    ТЕХ.ДАННЫЕ:
    Качество: BDRip-AVC
    Формат: MKV
    Видео кодек: AVC
    Аудио кодек: AC3
    Видео: AVC, 1024x428 (2.40:1), 1950 kbps, 23,976 fps, 0,186 bpp
    Аудио №1: русский / AC3 / 5.1 / 48 kHz / 384 kbps / 16 bit ||
    Аудио №2: английский / AC3 / 5.1 / 48 kHz / 384 kbps / 16 bit
    Навигация по главам: есть

    Цитата:

    Примечание: Расширенная версия длинее на 2 минут (гонки и драки), пару фраз без перевода.


    Код:

    General
    Unique ID                                : 248017279096533837363027261919541373085 (0xBA9663F4C6D615FA9DB2424E7714A89D)
    Complete name                            : D:\Торенты\Furious.Seven.2015.EXTENDED.AVC.BluRay.x264.mkv
    Format                                   : Matroska
    Format version                           : Version 4 / Version 2
    File size                                : 2.66 GiB
    Duration                                 : 2h 19mn
    Overall bit rate                         : 2 721 Kbps
    Encoded date                             : UTC 2015-07-22 15:21:20
    Writing application                      : mkvmerge v8.1.0 ('Psychedelic Postcard') 32bit
    Writing library                          : libebml v1.3.1 + libmatroska v1.4.2

    Video
    ID                                       : 1
    Format                                   : AVC
    Format/Info                              : Advanced Video Codec
    Format profile                           : High@L4.1
    Format settings, CABAC                   : Yes
    Format settings, ReFrames                : 8 frames
    Codec ID                                 : V_MPEG4/ISO/AVC
    Duration                                 : 2h 19mn
    Bit rate                                 : 1 950 Kbps
    Width                                    : 1 024 pixels
    Height                                   : 428 pixels
    Display aspect ratio                     : 2.40:1
    Frame rate mode                          : Variable
    Frame rate                               : 23.976 fps
    Standard                                 : Component
    Color space                              : YUV
    Chroma subsampling                       : 4:2:0
    Bit depth                                : 8 bits
    Scan type                                : Progressive
    Bits/(Pixel*Frame)                       : 0.186
    Stream size                              : 1.86 GiB (70%)
    Writing library                          : x264 core 144 r2525
    Encoding settings                        : cabac=1 / ref=8 / deblock=1:0:0 / analyse=0x3:0x102 / me=umh / subme=8 / psy=1 / psy_rd=0.10:2.00 / mixed_ref=0 / me_range=11 / chroma_me=1 / trellis=2 / 8x8dct=1 / cqm=0 / deadzone=6,6 / fast_pskip=1 / chroma_qp_offset=-3 / threads=6 / lookahead_threads=1 / sliced_threads=0 / nr=0 / decimate=1 / interlaced=0 / bluray_compat=0 / constrained_intra=0 / bframes=3 / b_pyramid=2 / b_adapt=2 / b_bias=3 / direct=3 / weightb=1 / open_gop=1 / weightp=2 / keyint=239 / keyint_min=23 / scenecut=22 / intra_refresh=0 / rc_lookahead=40 / rc=2pass / mbtree=0 / bitrate=1950 / ratetol=1.0 / qcomp=1.00 / qpmin=11 / qpmax=52 / qpstep=7 / cplxblur=20.0 / qblur=0.5 / vbv_maxrate=19500 / vbv_bufsize=19500 / nal_hrd=none / filler=0 / ip_ratio=1.10 / pb_ratio=1.30 / aq=1:1.20
    Default                                  : Yes
    Forced                                   : No

    Audio #1
    ID                                       : 2
    Format                                   : AC-3
    Format/Info                              : Audio Coding 3
    Mode extension                           : CM (complete main)
    Codec ID                                 : A_AC3
    Duration                                 : 2h 19mn
    Bit rate mode                            : Constant
    Bit rate                                 : 384 Kbps
    Channel(s)                               : 6 channels
    Channel positions                        : Front: L C R, Side: L R, LFE
    Sampling rate                            : 48.0 KHz
    Bit depth                                : 16 bits
    Compression mode                         : Lossy
    Delay relative to video                  : -83ms
    Stream size                              : 384 MiB (14%)
    Language                                 : Russian
    Default                                  : Yes
    Forced                                   : No

    Audio #2
    ID                                       : 3
    Format                                   : AC-3
    Format/Info                              : Audio Coding 3
    Mode extension                           : CM (complete main)
    Codec ID                                 : A_AC3
    Duration                                 : 2h 19mn
    Bit rate mode                            : Constant
    Bit rate                                 : 384 Kbps
    Channel(s)                               : 6 channels
    Channel positions                        : Front: L C R, Side: L R, LFE
    Sampling rate                            : 48.0 KHz
    Bit depth                                : 16 bits
    Compression mode                         : Lossy
    Delay relative to video                  : -83ms
    Stream size                              : 384 MiB (14%)
    Language                                 : English
    Default                                  : No
    Forced                                   : No

    Text
    ID                                       : 4
    Format                                   : VobSub
    Muxing mode                              : zlib
    Codec ID                                 : S_VOBSUB
    Codec ID/Info                            : The same subtitle format used on DVDs
    Language                                 : English
    Default                                  : No
    Forced                                   : No

    Menu
    00:00:00.000                             : en:00:00:00.000
    00:04:39.946                             : en:00:04:39.946
    00:11:29.480                             : en:00:11:29.480
    00:16:39.290                             : en:00:16:39.290
    00:25:54.052                             : en:00:25:54.052
    00:33:43.897                             : en:00:33:43.897
    00:41:44.585                             : en:00:41:44.585
    00:46:41.006                             : en:00:46:41.006
    00:52:10.711                             : en:00:52:10.711
    01:02:31.414                             : en:01:02:31.414
    01:06:16.681                             : en:01:06:16.681
    01:14:16.869                             : en:01:14:16.869
    01:22:34.032                             : en:01:22:34.032
    01:33:21.137                             : en:01:33:21.137
    01:38:27.485                             : en:01:38:27.485
    01:45:40.084                             : en:01:45:40.084
    01:53:54.452                             : en:01:53:54.452
    01:58:31.062                             : en:01:58:31.062
    02:06:19.864                             : en:02:06:19.864
    02:11:31.175                             : en:02:11:31.175

    Скриншоты:


    © Оформление by Ворон
    pb.wtf



  • Скачать Форсаж 7 через торрент http://pic.kartinco.top/images/6/ordi9.jpg Скачать фильм Форсаж 7 через торрент бесплантно в хорошем качестве Описание: Они покорили Токио и Рио, Лос-Анджелес и Лондон. Но мир больше не играет по их правилам. Зной арабских пустынь, неприлично ... 9.7 10 28
    Торрент: Зарегистрирован [2015-09-18 07:48] · скачан: 850 раз
    Статус: √ проверено
    Размер: 2.66 GB
    Как cкачать? Как скачать Форсаж 7 через торрент | qTorrent

    % Раздел Тема Автор DL S | L
    Фильмы [HD 720p, 1080p] (Хороший звук DUB, MVO) [ 5.79 GB ] Форсаж 7 / Furious Seven [2015 BDRip 1080p HEVC ] [Extended Cut] Мичман37 Скачать
    2 | 0
    Ultra HD (UHD: 2K, 4K, 8K) — видео сверхвысокой чёткости [ 68.17 GB ] Форсаж 7 / Furious Seven [2015 UHD BDRemux 2160p] DUB + 4xAVO [Расширенная версия] sheker187 Скачать
    1 | 0
    Фильмы [HD 720p, 1080p] (Хороший звук DUB, MVO) [ 8.37 GB ] Форсаж 7 / Furious Seven [2015 BDRip 720p от _denis_100 / NNNB] DUB 4xAVO _denis_100 Скачать
    1 | 0
    Фильмы (Blu-ray, BD-Remux, HDDVD) [ 25.65 GB ] Форсаж 7 / Furious Seven [Theatrical Cut] [2015 BD Remux 1080p - ] -Lexx- Скачать
    1 | 0
    Фильмы (WEB-DL 720p, 1080p) [ 4.7 GB ] Форсаж 7 / Furious Seven [2015 WEB-DL 1080p Russia] Ворон Скачать
    1 | 0
    Фильмы (HD 720p, 1080p) (48-60 fps) [ 4.71 GB ] Форсаж 7 / Furious Seven [2015 BDRip 720p 60fps от еnvy / NNNB] DUB еnvy Скачать
    1 | 0
    Фильмы 2015 [DVDrip, WEB-DLRip, HDrip] [ 1.46 GB ] Форсаж 7 / Furious Seven [2015 BDRip-AVC] [Расширенная версия] DUB potroks Скачать
    1 | 0

    28-11-2019 20:33  

    Отключить всю рекламу на сайте

    26-07-2015 09:39 Форсаж 7 Скачать торрент  

    Не хватает субтитров к песне, как в версии, что была в кино.pb.wtf



      Дорогой пользователь! Огромная просьба, поблагодарите релизера, оцените раздачу и оставьте свои комментарий, если Вы скачали Форсаж 7 через торрент бесплатно! Внесите свою лепту в развитие PiratBit!
      Комментировать посты могут только пользователи прошедшие не сложную регистрацию
      Показать сообщения:    

      Форсаж 7 через торрент
      Скачать бесплатно Форсаж 7
      Форсаж 7 скачать торрент
      Форсаж 7 смотреть онлайн
      Cкачать фильм Форсаж 7 бесплатно
      Форсаж 7 скачать торрент в хорошем качестве
      Форсаж 7 смотреть онлайн бесплатно в хорошем качестве


      Вы не можете начинать темы
      Вы не можете отвечать на сообщения
      Вы не можете редактировать свои сообщения
      Вы не можете удалять свои сообщения
      Вы не можете голосовать в опросах
      Вы не можете прикреплять файлы к сообщениям
      Вы можете скачивать файлы