Ссылка на приватное зеркало всего за 1$. Внимание количество ограничено!!!

OK

1+1

iTunes

мы

OK

1

WEB-DLRip

Джокер

Пифагор

Ведьмак / The Witcher сериал

Лицензия

ПШазам

ОК

Оно 2

iTunes

30
pack

Вам бонус

ВАЖНО

!!Акция!!

Alien_RageХит недели

RePack

Resident Evil 21

ИГРА 18+

pack

RePack

jed

RePack

fifa19

RePack

Assassins Creed: Odyssey

RePack

NEED FOR SPEED™ PAYBACK

4 сезон

9 сезон

Бесстыжие 9 сезон

Все сериалы

все сериалы на PB.wtf

RePack

FAR CRY 5
  

Машина времени в джакузи 2 (Стив Пинк) [2015, фантастика, комедия, HDRip] DUB Лицензия[UNRATED] pb.wtf

Машина времени в джакузи 2 через торрент pb.wtf

Размер: 1.37 GB | Добавлен: 4 года 4 мес. назад | Торрент скачан:217 раз
Скачать  

02-09-2015 15:21 Машина времени в джакузи 2 Скачать торрент  


Машина времени в джакузи 2 / Hot Tub Time Machine 2
««The laws of space and time are about to be violated»»

ИНФОРМАЦИЯ:
Год выпуска:2015
Страна: США
Жанр: фантастика, комедия
Продолжительность: 01:39:15
Перевод: Дубляж - [Лицензия]
Режиссер: Стив Пинк

В Ролях:


Роб Кордри (Lou), Крэйг Робинсон (Nick), Кларк Дьюк (Jacob), Адам Скотт (Adam Jr.), Гиллиан Джейкобс (Jill), Чеви Чейз (Hot Tub Repairman), Коллетт Вульф (Kelly), Бьянка Хаазе (Sophie), Джейсон Джонс (Gary Winkle), Кумэйл Нанджиани (Brad), Келли Стюарт (Courtney), Джош Хилд (Terry)

Описание:
Когда Лу попадает в беду, Ник и Джейкоб решают воспользоваться машиной времени в джакузи, чтобы вернуться в прошлое, но неожиданно оказываются в будущем с Адамом младшим. Теперь им придется изменить будущее, чтобы исправить события в прошлом.

  • Мировая премьера:20 февраля 2015

    ТЕХ.ДАННЫЕ:
    Качество: HDRip
    Формат: AVI
    Видео кодек: XviD
    Аудио кодек: AC3
    Видео: XviD, 720x400 (16:9), 1436 kbps, 23,976 fps, 0,208 bpp
    Аудио: AC3 / 5.1 / 48 kHz / 448 kbps / 16 bit

    Цитата:

    Примечание: UNRATED версия - длиннее театральной на 6 минут! Полный перевод! Расширенные сцены озвучены Михаилом Яроцким!


    General
    Complete name : D:\Торенты\Mash1Ha.BPemeH1.B.dzhaku3i.2.2O15.UNRATED.D.HDRip.1400Mb.avi
    Format : AVI
    Format/Info : Audio Video Interleave
    File size : 1.37 GiB
    Duration : 1h 39mn
    Overall bit rate : 1 971 Kbps
    Writing application : VirtualDubMod 1.5.10.2 (build 2540/release)
    Writing library : VirtualDubMod build 2540/release

    Video
    ID : 0
    Format : MPEG-4 Visual
    Format profile : Advanced Simple@L5
    Format settings, BVOP : 2
    Format settings, QPel : No
    Format settings, GMC : No warppoints
    Format settings, Matrix : Default (MPEG)
    Codec ID : XVID
    Codec ID/Hint : XviD
    Duration : 1h 39mn
    Bit rate : 1 436 Kbps
    Width : 720 pixels
    Height : 400 pixels
    Display aspect ratio : 16:9
    Frame rate : 23.976 fps
    Color space : YUV
    Chroma subsampling : 4:2:0
    Bit depth : 8 bits
    Scan type : Progressive
    Compression mode : Lossy
    Bits/(Pixel*Frame) : 0.208
    Stream size : 1 020 MiB (73%)
    Writing library : XviD 1.2.1 (UTC 2008-12-04)

    Audio
    ID : 1
    Format : AC-3
    Format/Info : Audio Coding 3
    Mode extension : CM (complete main)
    Codec ID : 2000
    Duration : 1h 39mn
    Bit rate mode : Constant
    Bit rate : 448 Kbps
    Channel(s) : 6 channels
    Channel positions : Front: L C R, Side: L R, LFE
    Sampling rate : 48.0 KHz
    Bit depth : 16 bits
    Compression mode : Lossy
    Stream size : 318 MiB (23%)
    Alignment : Split accross interleaves
    Скриншоты:


    © Оформление by Ворон
    pb.wtf



  • Скачать Машина времени в джакузи 2 через торрент http://pic.kartinco.top/images/6/ordi9.jpg Скачать фильм Машина времени в джакузи 2 через торрент бесплантно в хорошем качестве Описание: Когда Лу попадает в беду, Ник и Джейкоб решают воспользоваться машиной времени в джакузи, чтобы вернуться в прошлое, но ... 8.5 10 17
    Info! Золотая раздача, скачанное не засчитывается.
    Торрент: Зарегистрирован [2015-09-18 07:49] · скачан: 217 раз
    Статус: √ проверено
    Размер: 1.37 GB
    Как cкачать? Как скачать Машина времени в джакузи 2 через торрент | qTorrent

    % Раздел Тема Автор DL S | L
    Фильмы 2015 [DVDrip, WEB-DLRip, HDrip] [ 1.46 GB ] Машина времени в джакузи 2 [2015 BDRip] [Театральная версия] DUB Twi7ter Скачать
    1 | 0
    Фильмы (Blu-ray, BD-Remux, HDDVD) [ 26.25 GB ] Машина времени в джакузи 2 [2015 BD Remux] AVO - Яроцкий Newton5 Скачать
    1 | 0
    T Фильмы [HD 720p, 1080p] (Хороший звук DUB, MVO) [ 4.08 GB ] Машина времени в джакузи 2 [2015 BDRip 720p] DUB [UNRATED] Ворон Скачать
    1 | 0
    Фильмы 2015 [DVDrip, WEB-DLRip, HDrip] [ 1.44 GB ] Машина времени в джакузи 2 [2015 BDRip-AVC] [Театральная версия] DUB potroks Скачать
    1 | 0
    Фильмы [HD 720p, 1080p] (Хороший звук DUB, MVO) [ 4.55 GB ] Машина времени в джакузи 2 [2015 BDRip 720p] [Театральная версия] Ворон Скачать
    1 | 0
    Фильмы [HD 720p, 1080p] (Хороший звук DUB, MVO) [ 8.15 GB ] Машина времени в джакузи 2 [2015 BDRip 1080p / [Театральная версия] / ] Ворон Скачать
    1 | 0
    Фильмы 2015 [DVDrip, WEB-DLRip, HDrip] [ 1.37 GB ] Машина времени в джакузи 2 [2015 HDRip / [Театральная версия]| ] Ворон Скачать
    1 | 0

    28-11-2019 20:33  

    Отключить всю рекламу на сайте

      Дорогой пользователь! Огромная просьба, поблагодарите релизера, оцените раздачу и оставьте свои комментарий, если Вы скачали Машина времени в джакузи 2 через торрент бесплатно! Внесите свою лепту в развитие PiratBit!
      Комментировать посты могут только пользователи прошедшие не сложную регистрацию
      Показать сообщения:    

      Машина времени в джакузи 2 через торрент
      Скачать бесплатно Машина времени в джакузи 2
      Машина времени в джакузи 2 скачать торрент
      Машина времени в джакузи 2 смотреть онлайн
      Cкачать фильм Машина времени в джакузи 2 бесплатно
      Машина времени в джакузи 2 скачать торрент в хорошем качестве
      Машина времени в джакузи 2 смотреть онлайн бесплатно в хорошем качестве


      Вы не можете начинать темы
      Вы не можете отвечать на сообщения
      Вы не можете редактировать свои сообщения
      Вы не можете удалять свои сообщения
      Вы не можете голосовать в опросах
      Вы не можете прикреплять файлы к сообщениям
      Вы можете скачивать файлы