Ссылка на приватное зеркало нашего сайта всего за 1$. Внимание количество ограничено!!!

2 сезон

iTunes

1 сезон

1

2 сезон

2 сезон

iTunes

1 сезон

RePack

30

Ultimate

ВАЖНО

ИГРА 18+

pack

RePack

MK11
pack

Забери бонус

RePack

jed

!!Акция!!

Alien_Rage

RePack

fifa19

RePack

Assassins Creed: Odyssey

RePack

NEED FOR SPEED™ PAYBACK

4 сезон

9 сезон

Бесстыжие 9 сезон

Все сериалы

все сериалы на PB.wtf

RePack

FAR CRY 5
  

Мистер Робот / Mr. Robot / Сезон: 1 / Серии: 1-10 из 10 [2015 , драма, криминал, WEB-DLRip 720р] MVO (LostFilm) pb.wtf

Мистер Робот через торрент pb.wtf

Размер: 14.37 GB | Добавлен: 5 лет 2 мес. назад | Торрент скачан:124 раза
Скачать  

18-09-2015 07:56 Мистер Робот Скачать торрент  

Мистер Робот / Mr. Robot


Год выпуска: 2015
Страна: США
Жанр: драма, криминал
Продолжительность: ~ 01:05:01
Перевод: Профессиональный (многоголосый)
Режиссер: Сэм Эсмейл , Джим МакКэй , Тришиа Брок
В ролях:

Рами Малек (Elliot Alderson), Кристиан Слэйтер (Mr. Robot), Карли Чаикин (Darlene), Портия Даблдэй (Angela Moss), Мартин Волстром (Tyrell Wellick), Сунита Мани (Trenton), Майкл Гилл (Gideon Goddard), Бен Раппапорт (Ollie Parker), Фрэнки Шоу (Shayla), Рон Сепас Джонс (Romero), Стефани Корнелиуссен (Joanna Wellick), Азар Кхан (Mobley)

Описание:
Молодому программисту Эллиоту, страдающему диссоциальным расстройством личности, тяжело находить контакт с другими людьми. Он не знает, что такое нормы общения и как вести себя в социуме. Помимо прочего, герой — талантливый хакер, чьи навыки пользуются большим спросом среди представителей фирм правительственного уровня, обеспокоенных безопасностью своей деятельности в интернете. Однажды на связь с Эллиотом выходит некий мистер Робот — анархист, хакер и лидер подпольного радикального движения, которое под прикрытием пафосных лозунгов жаждет сломать бесполезные устои прогнившей власти. Новый знакомый предлагает Эллиоту вступить в его таинственную организацию, чтобы использовать знания талантливого компьютерщика в борьбе с могущественными американскими корпорациями.
Рейтинг:


Качество: WEB-DLRip 720p
Формат: MPEG-4
Видео кодек: AVC
Аудио кодек: AAC LC
Видео: AVC, 1280x720 (16:9), 4000 kbps, 23,976 fps, 0,181 bpp
Аудио: AAC LC / 2.0 / 48 kHz / 241 kbps /

Код:

General
Complete name                            : E:\Films\Series\Mr.Robot (S01) 720p.LostFilm\Mr.Robot.S01E01.720p.WEB.rus.LostFilm.TV.mp4
Format                                   : MPEG-4
Format profile                           : Base Media
Codec ID                                 : isom
File size                                : 1.90 GiB
Duration                                 : 1h 5mn
Overall bit rate mode                    : Variable
Overall bit rate                         : 4 174 Kbps
Movie name                               : ПРИВЕТДРУГ.MOV
Album                                    : Мистер Робот, Сезон 1
Album/Performer                          : Мистер Робот
Part/Position                            : 1
Part/Total                               : 0
Track name/Position                      : 1
Track name/Total                         : 0
Performer                                : Мистер Робот
Genre                                    : Drama
Recorded date                            : 2015
Encoded date                             : UTC 2015-06-07 20:32:53
Tagged date                              : UTC 2015-06-07 20:32:53
Writing application                      : LostCoder
Copyright                                : LostFilm.TV (c)
Cover                                    : Yes
Comment                                  : Молодому программисту Эллиоту тяжело находить контакт с другими людьми. Он - талантливый хакер, чьи навыки пользуются большим спросом среди представителей фирм правительственного уровня. Однажды на связь с Эллиотом выходит некий мистер Робот.
tvsh                                     : Мистер Робот
tven                                     : 101
tvsn                                     : 1
tves                                     : 1
stik                                     : 10

Video
ID                                       : 1
Format                                   : AVC
Format/Info                              : Advanced Video Codec
Format profile                           : High@L3.1
Format settings, CABAC                   : No
Format settings, ReFrames                : 2 frames
Codec ID                                 : avc1
Codec ID/Info                            : Advanced Video Coding
Duration                                 : 1h 5mn
Bit rate                                 : 4 000 Kbps
Maximum bit rate                         : 13.4 Mbps
Width                                    : 1 280 pixels
Height                                   : 720 pixels
Display aspect ratio                     : 16:9
Frame rate mode                          : Variable
Frame rate                               : 23.976 fps
Minimum frame rate                       : 23.974 fps
Maximum frame rate                       : 23.981 fps
Color space                              : YUV
Chroma subsampling                       : 4:2:0
Bit depth                                : 8 bits
Scan type                                : Progressive
Bits/(Pixel*Frame)                       : 0.181
Stream size                              : 1.78 GiB (94%)
Writing library                          : x264 core 112 r1834 a51816a
Encoding settings                        : cabac=0 / ref=3 / deblock=1:0:0 / analyse=0x1:0x111 / me=hex / subme=7 / psy=1 / psy_rd=1.00:0.00 / mixed_ref=1 / me_range=16 / chroma_me=1 / trellis=1 / 8x8dct=0 / cqm=0 / deadzone=21,11 / fast_pskip=1 / chroma_qp_offset=-2 / threads=12 / sliced_threads=0 / nr=0 / decimate=1 / interlaced=0 / constrained_intra=0 / bframes=3 / b_pyramid=2 / b_adapt=1 / b_bias=0 / direct=1 / weightb=1 / open_gop=0 / weightp=2 / keyint=250 / keyint_min=25 / scenecut=40 / intra_refresh=0 / rc_lookahead=40 / rc=abr / mbtree=1 / bitrate=4000 / ratetol=1.0 / qcomp=0.60 / qpmin=0 / qpmax=51 / qpstep=4 / vbv_maxrate=5000 / vbv_bufsize=2000 / ip_ratio=1.40 / aq=1:1.00 / nal_hrd=none
Language                                 : English
Tagged date                              : UTC 2015-06-07 20:33:21
Color primaries                          : BT.709-5, BT.1361, IEC 61966-2-4, SMPTE RP177
Transfer characteristics                 : BT.709-5, BT.1361
Matrix coefficients                      : BT.709-5, BT.1361, IEC 61966-2-4 709, SMPTE RP177

Audio
ID                                       : 2
Format                                   : AAC
Format/Info                              : Advanced Audio Codec
Format profile                           : LC
Codec ID                                 : 40
Duration                                 : 1h 5mn
Bit rate mode                            : Variable
Bit rate                                 : 241 Kbps
Maximum bit rate                         : 303 Kbps
Channel(s)                               : 2 channels
Channel positions                        : Front: L R
Sampling rate                            : 48.0 KHz
Compression mode                         : Lossy
Stream size                              : 112 MiB (6%)
Encoded date                             : UTC 2015-06-07 20:33:16
Tagged date                              : UTC 2015-06-07 20:33:21

скриншот   скриншот   скриншот  
pb.wtf



Скачать Мистер Робот через торрент http://i5.imageban.ru/out/2015/09/18/093d66bec484c7037dabdd0d03acbe2b.jpg Скачать фильм Мистер Робот через торрент бесплантно в хорошем качестве Описание: Молодому программисту Эллиоту, страдающему диссоциальным расстройством личности, тяжело находить контакт с другими людьми. Он не ... 10 10 7
Info! Золотая раздача, скачанное не засчитывается.
Торрент: Зарегистрирован [2015-09-18 07:56] · скачан: 124 раз
Статус: √ проверено
Размер: 14.37 GB
Как cкачать? Как скачать Мистер Робот через торрент | qTorrent

% Раздел Тема Автор DL S | L
Зарубежные сериалы [ 40.36 GB ] Мистер Робот / Mr. Robot / Сезон: 4 / Серии: 1-13 из 13 [2019 WEB-DL 1080p] MVO [Lostfilm] bober100 Скачать
1 | 0
Зарубежные сериалы [ 37.21 GB ] Мистер Робот / Mr. Robot / Сезон: 4 / Серии: 1-13 из 13 [2019 WEB-DL 1080p] MVO [TVShows] bober100 Скачать
1 | 0
Зарубежные сериалы [ 36.33 GB ] Мистер Робот / Mr. Robot / Сезон: 4 / Серии: 1-13 из 13 [2019 WEB-DL 1080p] MVO [Jaskier] bober100 Скачать
1 | 0
Зарубежные сериалы [ 3.46 GB ] Мистер Робот / Mr. Robot / Сезон: 1 / Серии 1-10 из 10 [2015 WEB-DLRip MVO] [LostFilm] GEKADOL Скачать
1 | 0
Зарубежные сериалы [ 66 GB ] Мистер робот / Mr. Robot / Сезон: 1-3 / Серии: 1-32 из 32 [2015 WEB-DL 1080p] MVO [LostFilm] bober100 Скачать
2 | 0
Зарубежные сериалы [ 20.56 GB ] Мистер Робот / Mr. Robot / Сезон 3 / Серии 1-10 из 10 [2017 Драмма WEB-DL 1080p] MVO [LostFilm] Chpoks Скачать
1 | 0
Зарубежные сериалы [ 8.5 GB ] Мистер Робот / Mr. Robot / Сезон 3 / Серии 1-10 из 10 [2017 WEB-DL 720p] MVO [Jaskier] bober100 Скачать
1 | 0

28-11-2019 20:33  

Отключить всю рекламу на сайте

27-01-2017 19:16 Мистер Робот Скачать торрент  

вот бы скорости чуток осталось 12% фильм хороший, хочется в качестве посмотреть, а не в онлайн pb.wtf



02-11-2017 08:56 Мистер Робот Скачать торрент  

дайте скорости пожалуйста))pb.wtf



    Дорогой пользователь! Огромная просьба, поблагодарите релизера, оцените раздачу и оставьте свои комментарий, если Вы скачали Мистер Робот через торрент бесплатно! Внесите свою лепту в развитие PiratBit!
    Комментировать посты могут только пользователи прошедшие не сложную регистрацию
    Показать сообщения:    

    Мистер Робот через торрент
    Скачать бесплатно Мистер Робот
    Мистер Робот скачать торрент
    Мистер Робот смотреть онлайн
    Cкачать фильм Мистер Робот бесплатно
    Мистер Робот скачать торрент в хорошем качестве
    Мистер Робот смотреть онлайн бесплатно в хорошем качестве


    Вы не можете начинать темы
    Вы не можете отвечать на сообщения
    Вы не можете редактировать свои сообщения
    Вы не можете удалять свои сообщения
    Вы не можете голосовать в опросах
    Вы не можете прикреплять файлы к сообщениям
    Вы можете скачивать файлы