Толстяк против всех (Энди Фикмен) [2015 г., боевик, комедия, HDRip, Профессиональный многоголосый закадровый "Лицензия"] pb.wtf

Толстяк против всех через торрент pb.wtf

Размер: 704 MB | Добавлен: 5 лет назад | Торрент скачан:51 раз
Скачать  

17-07-2015 17:53 Толстяк против всех Скачать торрент  

Толстяк против всех / Paul Blart: Mall Cop 2
Год выпуска: 2015
Страна: США / Columbia Pictures, Happy Madison Productions, Hey Eddie
Жанр: боевик, комедия
Продолжительность: 01:34:00
Перевод: Профессиональный многоголосый закадровый (Лицензия)

Режиссер: Энди Фикмен

IMDB 4.10 (7662)


В ролях: Кевин Джеймс, Рейни Родригес, Эдуардо Верастеги, Даниэлла Алонсо, Нил МакДонаф, Дэвид Генри, Д.Б. Вудсайд, Николас Туртурро, Лони Лав, Гари Валентайн

Описание: Охранник Пол отправляется в Лас-Вегас, чтобы посетить посвященную охране выставку вместе со своей дочерью Майей, прежде чем она уедет в колледж. На выставке Пол случайно узнает об ограблении и решает задержать преступников...

Качество: HDRip
Формат: AVI
Видео кодек: XviD
Аудио кодек: MP3
Видео: 640x344 (1.86:1), 23.976 fps, XviD build 50 ~909 kbps avg, 0.17 bit/pixel
Аудио: 48 kHz, MPEG Layer 3, 2 ch, ~128.00 kbps avg

Общее
Полное имя : F:\кино\Толстяк против всех.2015.HDRip.700MB.avi
Формат : AVI
Формат/Информация : Audio Video Interleave
Размер файла : 704 Мбайт
Продолжительность : 1 ч. 34 м.
Общий поток : 1047 Кбит/сек
Программа кодирования : VirtualDubMod 1.5.10.3 | www.virtualdub-fr.org || (build 2550/release)
Библиотека кодирования : VirtualDubMod build 2550/release

Видео
Идентификатор : 0
Формат : MPEG-4 Visual
Профиль формата : Advanced Simple@L5
Параметр BVOP формата : 2
Параметр QPel формата : Нет
Параметр GMC формата : Без точки перехода
Параметр матрицы формата : Default (H.263)
Идентификатор кодека : XVID
Идентификатор кодека/Подсказка : XviD
Продолжительность : 1 ч. 34 м.
Битрейт : 909 Кбит/сек
Ширина : 640 пикселей
Высота : 344 пикселя
Соотношение сторон : 1,85:1
Частота кадров : 23,976 кадра/сек
Цветовое пространство : YUV
Субдискретизация насыщенности : 4:2:0
Битовая глубина : 8 бит
Тип развёртки : Прогрессивная
Метод сжатия : С потерями
Бит/(Пиксели*Кадры) : 0.172
Размер потока : 611 Мбайт (87%)
Библиотека кодирования : XviD 1.2.1 (UTC 2008-12-04)

Аудио
Идентификатор : 1
Формат : MPEG Audio
Версия формата : Version 1
Профиль формата : Layer 3
Режим : Joint stereo
Расширение режима : MS Stereo
Идентификатор кодека : 55
Идентификатор кодека/Подсказка : MP3
Продолжительность : 1 ч. 34 м.
Вид битрейта : Постоянный
Битрейт : 128 Кбит/сек
Каналы : 2 канала
Частота : 48,0 КГц
Метод сжатия : С потерями
Размер потока : 86,1 Мбайт (12%)
Выравнивание : Соединение по промежуткам
Продолжительность промежутка : 42 мс. (1,00 видеокадр)
Время предзагрузки промежутка : 504 мс.
Библиотека кодирования : LAME3.99r
Настройки программы : -m j -V 4 -q 2 -lowpass 17 -b 128

pb.wtf



Скачать Толстяк против всех через торрент http://pic1.kartinco.top/images/10/rsyow.jpg Скачать фильм Толстяк против всех через торрент бесплантно в хорошем качестве Описание: Охранник Пол отправляется в Лас-Вегас, чтобы посетить посвященную охране выставку вместе со своей дочерью Майей, прежде чем она ... 9.5 10 17
Торрент: Зарегистрирован [2015-09-18 08:00] · скачан: 51 раз
Статус: √ проверено
Размер: 704 MB
Как cкачать? Как скачать Толстяк против всех через торрент | qTorrent

% Раздел Тема Автор DL S | L
Ultra HD (UHD: 2K, 4K, 8K) — видео сверхвысокой чёткости [ 24.99 GB ] Толстяк против всех / Paul Blart: Mall Cop 2 [2015 UHD WEB-DL 2160p] MVO [] bober100 Скачать
1 | 0
Фильмы [HD 720p, 1080p] (Хороший звук DUB, MVO) [ 10.43 GB ] Толстяк против всех [2015 BDRip 1080p многоголосый [] Ворон Скачать
1 | 0
Фильмы (Blu-ray, BD-Remux, HDDVD) [ 20.61 GB ] Толстяк против всех [2015 BD Remux многоголосый [] Ворон Скачать
1 | 0
Фильмы без перевода [ 7.67 GB ] Толстяк против всех [2015 BDRip 1080p] [ENG] killermax2013 Скачать
1 | 0

28-11-2019 20:33  

Отключить всю рекламу на сайте

22-08-2015 18:09 Толстяк против всех Скачать торрент  

Релиз обновлен!Просьба перекачать торрент файл! pb.wtf



23-08-2015 05:40 Толстяк против всех Скачать торрент  

Чё то перегнули с откровенным идиотизмом, выключил на 7 минуте.pb.wtf



23-08-2015 11:01 Толстяк против всех Скачать торрент  

а вчем заключается обновлениеpb.wtf



    Дорогой пользователь! Огромная просьба, поблагодарите релизера, оцените раздачу и оставьте свои комментарий, если Вы скачали Толстяк против всех через торрент бесплатно! Внесите свою лепту в развитие PiratBit!
    Комментировать посты могут только пользователи прошедшие не сложную регистрацию
    Показать сообщения:    

    Толстяк против всех через торрент
    Скачать бесплатно Толстяк против всех
    Толстяк против всех скачать торрент
    Толстяк против всех смотреть онлайн
    Cкачать фильм Толстяк против всех бесплатно
    Толстяк против всех скачать торрент в хорошем качестве
    Толстяк против всех смотреть онлайн бесплатно в хорошем качестве


    Вы не можете начинать темы
    Вы не можете отвечать на сообщения
    Вы не можете редактировать свои сообщения
    Вы не можете удалять свои сообщения
    Вы не можете голосовать в опросах
    Вы не можете прикреплять файлы к сообщениям
    Вы можете скачивать файлы