Ссылка на приватное зеркало всего за 1$. Внимание количество ограничено!!!

OK

1+1

iTunes

мы

OK

1

WEB-DLRip

Джокер

Пифагор

Ведьмак / The Witcher сериал

iTunes

ПШазам

ОК

Оно 2

iTunes

30
pack

Вам бонус

ВАЖНО

!!Акция!!

Alien_RageХит недели

RePack

Resident Evil 21

ИГРА 18+

pack

RePack

jed

RePack

fifa19

RePack

Assassins Creed: Odyssey

RePack

NEED FOR SPEED™ PAYBACK

4 сезон

9 сезон

Бесстыжие 9 сезон

Все сериалы

все сериалы на PB.wtf

RePack

FAR CRY 5
  

Отель «Мэриголд». Заселение продолжается (Джон Мэдден / John Madden) [2015, драма, комедия, BDRip-AVC от potroks] DUB Лицензия pb.wtf

Отель «Мэриголд». Заселение продолжается через торрент pb.wtf

Размер: 1.46 GB | Добавлен: 4 года 4 мес. назад | Торрент скачан:135 раз
Скачать  

18-07-2015 03:58 Отель «Мэриголд». Заселение продолжается Скачать торрент  

Отель «Мэриголд». Заселение продолжается / The Second Best Exotic Marigold Hotel
Год выпуска: 2015
Страна: Великобритания, США / Blueprint Pictures
Жанр: драма, комедия
Продолжительность: 02:02:39
Перевод: Дубляж [BD CE]
Субтитры: русские (Forced), русские (Full)

Режиссер: Джон Мэдден / John Madden

В ролях:

Дев Патель (Sonny Kapoor), Мэгги Смит (Muriel Donnelly), Дэнни Махони (Car Valet), Дэвид Стрэтэйрн (Ty Burley), Джуди Денч (Evelyn Greenslade), Билл Найи (Douglas Ainslie), Селия Имри (Madge Hardcastle), Рональд Пикап (Norman Cousins), Диана Хардкэсл (Carol Parr), Сабхраджоти Барат (Hari), Фиона Моллисон (Susan), Захари Соффин (American Tourist)

Описание:
Отель «Мэриголд» не был бы экзотическим, если бы не поселил двух незнакомых друг с другом людей в один номер; и он не стал бы лучшим, если бы из этого не произошло ничего хорошего.



Качество: BDRip-AVC
Формат: MKV
Видео кодек: AVC
Аудио кодек: AC3
Видео: AVC, 900x376 (2.40:1), 1320 kbps, 23,976 fps, 0,163 bpp
Аудио: AC3 / 5.1 / 48 kHz / 384 kbps / 16 bit
Навигация по главам: есть

Код:

Общее
Уникальный идентификатор : 238919452272509753100759105871395592787 (0xB3BE367650487A3E991DDC8478229A53)
Полное имя : Otel'.Merigold.Zaseleniye.Prodolzhaetsya.2015.RUS.BDRip.x264.-HELLYWOOD.mkv
Формат : Matroska
Версия формата : Version 4 / Version 2
Размер файла : 1,46 Гбайт
Продолжительность : 2 ч. 2 м.
Общий поток : 1706 Кбит/сек
Название фильма : The Second Best Exotic Marigold Hotel (2015) - HELLYWOOD
Дата кодирования : UTC 2015-07-23 18:11:10
Программа кодирования : mkvmerge v5.9.0 ('On The Loose') built on Dec 15 2012 16:39:58
Библиотека кодирования : libebml v1.3.0 + libmatroska v1.4.0

Видео
Идентификатор : 1
Формат : AVC
Формат/Информация : Advanced Video Codec
Профиль формата : High@L4.1
Параметр CABAC формата : Да
Параметр ReFrames формата : 12 кадров
Идентификатор кодека : V_MPEG4/ISO/AVC
Продолжительность : 2 ч. 2 м.
Битрейт : 1320 Кбит/сек
Ширина : 900 пикселей
Высота : 376 пикселей
Соотношение сторон : 2,40:1
Режим частоты кадров : Постоянный
Частота кадров : 23,976 кадра/сек
Цветовое пространство : YUV
Субдискретизация насыщенности : 4:2:0
Битовая глубина : 8 бит
Тип развёртки : Прогрессивная
Бит/(Пиксели*Кадры) : 0.163
Размер потока : 1,10 Гбайт (75%)
Заголовок : potroks
Библиотека кодирования : x264 core 146 r2538 121396c
Настройки программы : cabac=1 / ref=12 / deblock=1:-2:-2 / analyse=0x3:0x113 / me=umh / subme=11 / psy=1 / psy_rd=1.05:0.10 / mixed_ref=1 / me_range=48 / chroma_me=1 / trellis=2 / 8x8dct=1 / cqm=0 / deadzone=21,11 / fast_pskip=0 / chroma_qp_offset=-3 / threads=9 / lookahead_threads=2 / sliced_threads=0 / nr=0 / decimate=1 / interlaced=0 / bluray_compat=0 / constrained_intra=0 / bframes=13 / b_pyramid=2 / b_adapt=2 / b_bias=0 / direct=3 / weightb=1 / open_gop=0 / weightp=2 / keyint=250 / keyint_min=23 / scenecut=40 / intra_refresh=0 / rc_lookahead=60 / rc=2pass / mbtree=0 / bitrate=1320 / ratetol=1.0 / qcomp=0.70 / qpmin=0 / qpmax=69 / qpstep=4 / cplxblur=20.0 / qblur=0.5 / vbv_maxrate=14000 / vbv_bufsize=14000 / nal_hrd=none / filler=0 / ip_ratio=1.35 / pb_ratio=1.25 / aq=1:0.80
Язык : English
Default : Да
Forced : Нет

Аудио
Идентификатор : 2
Формат : AC-3
Формат/Информация : Audio Coding 3
Расширение режима : CM (complete main)
Параметр Endianness формата : Big
Идентификатор кодека : A_AC3
Продолжительность : 2 ч. 2 м.
Вид битрейта : Постоянный
Битрейт : 384 Кбит/сек
Каналы : 6 каналов
Расположение каналов : Front: L C R, Side: L R, LFE
Частота : 48,0 КГц
Метод сжатия : С потерями
Размер потока : 337 Мбайт (23%)
Заголовок : Dub | DD 5.1 @ 384 kbps - Blu-Ray CEE
Язык : Russian
Default : Да
Forced : Нет

Текст #1
Идентификатор : 3
Формат : UTF-8
Идентификатор кодека : S_TEXT/UTF8
Идентификатор кодека/Информация : UTF-8 Plain Text
Заголовок : Forced
Язык : Russian
Default : Да
Forced : Нет

Текст #2
Идентификатор : 4
Формат : UTF-8
Идентификатор кодека : S_TEXT/UTF8
Идентификатор кодека/Информация : UTF-8 Plain Text
Заголовок : Full
Язык : Russian
Default : Нет
Forced : Нет

Меню
00:00:00.000 : en:(01)00:00:00:000
00:04:14.336 : en:(02)00:04:14:336
00:09:35.865 : en:(03)00:09:35:865
00:15:14.955 : en:(04)00:15:14:955
00:19:20.659 : en:(05)00:19:20:659
00:23:01.797 : en:(06)00:23:01:797
00:28:20.030 : en:(07)00:28:20:030
00:32:28.695 : en:(08)00:32:28:695
00:36:00.782 : en:(09)00:36:00:782
00:39:55.101 : en:(10)00:39:55:101
00:44:39.092 : en:(11)00:44:39:092
00:49:53.407 : en:(12)00:49:53:407
00:53:55.731 : en:(13)00:53:55:731
00:58:33.635 : en:(14)00:58:33:635
01:02:55.271 : en:(15)01:02:55:271
01:05:19.206 : en:(16)01:05:19:206
01:10:42.488 : en:(17)01:10:42:488
01:14:29.881 : en:(18)01:14:29:881
01:17:48.372 : en:(19)01:17:48:372
01:21:25.171 : en:(20)01:21:25:171
01:26:55.627 : en:(21)01:26:55:627
01:30:52.195 : en:(22)01:30:52:195
01:35:17.670 : en:(23)01:35:17:670
01:38:34.742 : en:(24)01:38:34:742
01:44:33.975 : en:(25)01:44:33:975
01:47:40.119 : en:(26)01:47:40:119
01:52:02.923 : en:(27)01:52:02:923
01:56:27.979 : en:(28)01:56:27:979
02:02:40.144 : en:(29)02:02:40:144

pb.wtf



Скачать Отель «Мэриголд». Заселение продолжается через торрент http://i70.fastpic.ru/big/2015/0718/da/9d906a5b75a584e1309511d80b2660da.png Скачать фильм Отель «Мэриголд». Заселение продолжается через торрент бесплантно в хорошем качестве Описание: Отель «Мэриголд» не был бы экзотическим, если бы не поселил двух незнакомых друг с другом людей в один номер; и он не стал бы ... 9.8 10 11
Info! Серебряная раздача, засчитывается только 50% скачанного.
Торрент: Зарегистрирован [2015-09-18 08:05] · скачан: 135 раз
Статус: √ проверено
Размер: 1.46 GB
Как cкачать? Как скачать Отель «Мэриголд». Заселение продолжается через торрент | qTorrent

% Раздел Тема Автор DL S | L
Фильмы 2015 [DVDrip, WEB-DLRip, HDrip] [ 1.46 GB ] Отель «Мэриголд». Заселение продолжается [2015 BDRip] DUB Twi7ter Скачать
1 | 0

28-11-2019 20:33  

Отключить всю рекламу на сайте

23-07-2015 18:23 Отель «Мэриголд». Заселение продолжается Скачать торрент  

замена на лицензиюpb.wtf



23-07-2015 19:34 Отель «Мэриголд». Заселение продолжается Скачать торрент  

Спасиб!pb.wtf



    Дорогой пользователь! Огромная просьба, поблагодарите релизера, оцените раздачу и оставьте свои комментарий, если Вы скачали Отель «Мэриголд». Заселение продолжается через торрент бесплатно! Внесите свою лепту в развитие PiratBit!
    Комментировать посты могут только пользователи прошедшие не сложную регистрацию
    Показать сообщения:    

    Отель «Мэриголд». Заселение продолжается через торрент
    Скачать бесплатно Отель «Мэриголд». Заселение продолжается
    Отель «Мэриголд». Заселение продолжается скачать торрент
    Отель «Мэриголд». Заселение продолжается смотреть онлайн
    Cкачать фильм Отель «Мэриголд». Заселение продолжается бесплатно
    Отель «Мэриголд». Заселение продолжается скачать торрент в хорошем качестве
    Отель «Мэриголд». Заселение продолжается смотреть онлайн бесплатно в хорошем качестве


    Вы не можете начинать темы
    Вы не можете отвечать на сообщения
    Вы не можете редактировать свои сообщения
    Вы не можете удалять свои сообщения
    Вы не можете голосовать в опросах
    Вы не можете прикреплять файлы к сообщениям
    Вы можете скачивать файлы