Ссылка на приватное зеркало всего за 1$. Внимание количество ограничено!!!

OK

1+1

iTunes

мы

OK

1

WEB-DLRip

Джокер

Пифагор

Ведьмак / The Witcher сериал

iTunes

ПШазам

ОК

Оно 2

iTunes

30
pack

Вам бонус

ВАЖНО

!!Акция!!

Alien_RageХит недели

RePack

Resident Evil 21

ИГРА 18+

pack

RePack

jed

RePack

fifa19

RePack

Assassins Creed: Odyssey

RePack

NEED FOR SPEED™ PAYBACK

4 сезон

9 сезон

Бесстыжие 9 сезон

Все сериалы

все сериалы на PB.wtf

RePack

FAR CRY 5
  

Шафер напрокат (Джереми Гарелик) [2015 г., комедия, HDRip, Дубляж, Лицензия] pb.wtf

Шафер напрокат через торрент pb.wtf

Размер: 2.03 GB | Добавлен: 4 года 4 мес. назад | Торрент скачан:399 раз
Скачать  

16-07-2015 17:10 Шафер напрокат Скачать торрент  

Шафер напрокат / The Wedding Ringer
Год выпуска: 2015
Страна: США / LStar Capital, Miramax, Screen Gems
Жанр: комедия
Продолжительность: 01:41:26
Перевод: Дубляж (Лицензия)

Режиссер: Джереми Гарелик

IMDB 6.70 (31 999)


В ролях: Кевин Харт, Джош Гад, Кейли Куоко-Суитинг, Эффион Крокетт, Хорхе Гарсиа, Дэн Гилл, Кори Холкомб, Кен Ховард, Колин Кэйн, Клорис Личмен

Описание: Главный герой женится на девушке своей мечты. Он купил кольца и смокинг, оплатил шикарный ресторан, но для идеальной церемонии не хватает маленькой детали — друзей жениха. Эту «услугу» он находит в специальном агентстве, где напрокат получает целый комплект «друзей»... Пройдет ли теперь подготовка и сама свадьба идеально?

Качество: HDRip
Формат: AVI
Видео кодек: XviD
Аудио кодек: AC3
Видео: 720x304 (2.37:1), 23.976 fps, XviD build 50 ~2408 kbps avg, 0.46 bit/pixel
Аудио: 48 kHz, AC3 Dolby Digital, 3/2 (L,C,R,l,r) + LFE ch, ~448 kbps

Общее
Полное имя : D:\Шафер напрокат.2015.HDRip.avi
Формат : AVI
Формат/Информация : Audio Video Interleave
Профиль формата : OpenDML
Размер файла : 2,03 Гбайт
Продолжительность : 1 ч. 41 м.
Общий поток : 2864 Кбит/сек
Программа кодирования : VirtualDubMod 1.5.10.3 | www.virtualdub-fr.org || (build 2550/release)
Библиотека кодирования : VirtualDubMod build 2550/release

Видео
Идентификатор : 0
Формат : MPEG-4 Visual
Профиль формата : Advanced Simple@L5
Параметр BVOP формата : 2
Параметр QPel формата : Нет
Параметр GMC формата : Без точки перехода
Параметр матрицы формата : Default (H.263)
Идентификатор кодека : XVID
Идентификатор кодека/Подсказка : XviD
Продолжительность : 1 ч. 41 м.
Битрейт : 2403 Кбит/сек
Ширина : 720 пикселей
Высота : 304 пикселя
Соотношение сторон : 2,35:1
Частота кадров : 23,976 кадра/сек
Цветовое пространство : YUV
Субдискретизация насыщенности : 4:2:0
Битовая глубина : 8 бит
Тип развёртки : Прогрессивная
Метод сжатия : С потерями
Бит/(Пиксели*Кадры) : 0.458
Размер потока : 1,70 Гбайт (84%)
Библиотека кодирования : XviD 1.2.1 (UTC 2008-12-04)

Аудио
Идентификатор : 1
Формат : AC-3
Формат/Информация : Audio Coding 3
Расширение режима : CM (complete main)
Параметр Endianness формата : Big
Идентификатор кодека : 2000
Продолжительность : 1 ч. 41 м.
Вид битрейта : Постоянный
Битрейт : 448 Кбит/сек
Каналы : 6 каналов
Расположение каналов : Front: L C R, Side: L R, LFE
Частота : 48,0 КГц
Метод сжатия : С потерями
Размер потока : 325 Мбайт (16%)
Выравнивание : Разделение по промежуткам
Продолжительность промежутка : 42 мс. (1,00 видеокадр)
Время предзагрузки промежутка : 500 мс.

pb.wtf



Скачать Шафер напрокат через торрент http://pic1.kartinco.top/images/10/9nlme.jpg Скачать фильм Шафер напрокат через торрент бесплантно в хорошем качестве Описание: Главный герой женится на девушке своей мечты. Он купил кольца и смокинг, оплатил шикарный ресторан, но для идеальной церемонии не ... 9.8 10 62
Торрент: Зарегистрирован [2015-09-18 08:06] · скачан: 399 раз
Статус: √ проверено
Размер: 2.03 GB
Как cкачать? Как скачать Шафер напрокат через торрент | qTorrent

% Раздел Тема Автор DL S | L
Фильмы (Blu-ray, BD-Remux, HDDVD) [ 34.18 GB ] Шафер напрокат / The Wedding Ringer [2015 Blu-Ray] Russian Mafia Скачать
1 | 0
Фильмы [HD 720p, 1080p] (Хороший звук DUB, MVO) [ 4.71 GB ] Шафер напрокат [2015 BDRip 720p] DUB potroks Скачать
1 | 0
Фильмы 2015 [DVDrip, WEB-DLRip, HDrip] [ 1.46 GB ] Шафер напрокат [2015 BDRip] DUB Twi7ter Скачать
1 | 0
Фильмы [HD 720p, 1080p] (Хороший звук DUB, MVO) [ 9.4 GB ] Шафер напрокат [2015 BDRip 1080p - / ] + ENG + SUB GEKADOL Скачать
1 | 0
Фильмы (Blu-ray, BD-Remux, HDDVD) [ 19.81 GB ] Шафер напрокат [2015 BD Remux ] Ворон Скачать
1 | 0
Фильмы [HD 720p, 1080p] (Хороший звук DUB, MVO) [ 5.12 GB ] Шафер напрокат [2015 BDRip 720p - / ] + ENG + SUB GEKADOL Скачать
1 | 0
Фильмы 2015 [DVDrip, WEB-DLRip, HDrip] [ 2.23 GB ] Шафер напрокат [2015 BDRip-AVC] DUB potroks Скачать
1 | 0

28-11-2019 20:33  

Отключить всю рекламу на сайте

16-07-2015 20:04 Шафер напрокат Скачать торрент  

Спасибо!pb.wtf



18-08-2015 11:10 Шафер напрокат Скачать торрент  

Благодарю!!! pb.wtf



05-09-2015 08:33 Шафер напрокат Скачать торрент  

От души фильмак)pb.wtf



06-09-2015 01:53 Шафер напрокат Скачать торрент  

фильм очень неплохой, давно не было хороших комедий.pb.wtf



07-09-2015 18:07 Шафер напрокат Скачать торрент  

Зачетный фильм!!! :) у друга скоро свадьба, зажгем :hunter: :curtsey: :pleasantry: :gamer2:pb.wtf



07-09-2015 19:14 Шафер напрокат Скачать торрент  

качаю ради теории большого взрыва !pb.wtf



08-09-2015 07:41 Шафер напрокат Скачать торрент  

Это отличный фильм!pb.wtf



08-09-2015 07:42 Шафер напрокат Скачать торрент  

Очень хорошая комедия. 10+ Смеялся от души))))pb.wtf



09-09-2015 13:50 Шафер напрокат Скачать торрент  

Мне понравился, даже без тупого пошлятского юморка.pb.wtf



10-09-2015 08:27 Шафер напрокат Скачать торрент  

5+pb.wtf



12-09-2015 14:05 Шафер напрокат Скачать торрент  

классный фильм)pb.wtf



    Дорогой пользователь! Огромная просьба, поблагодарите релизера, оцените раздачу и оставьте свои комментарий, если Вы скачали Шафер напрокат через торрент бесплатно! Внесите свою лепту в развитие PiratBit!
    Комментировать посты могут только пользователи прошедшие не сложную регистрацию
    Показать сообщения:    

    Шафер напрокат через торрент
    Скачать бесплатно Шафер напрокат
    Шафер напрокат скачать торрент
    Шафер напрокат смотреть онлайн
    Cкачать фильм Шафер напрокат бесплатно
    Шафер напрокат скачать торрент в хорошем качестве
    Шафер напрокат смотреть онлайн бесплатно в хорошем качестве


    Вы не можете начинать темы
    Вы не можете отвечать на сообщения
    Вы не можете редактировать свои сообщения
    Вы не можете удалять свои сообщения
    Вы не можете голосовать в опросах
    Вы не можете прикреплять файлы к сообщениям
    Вы можете скачивать файлы