новый адрес
Мега распродажа FORZA HORIZON 4 ULTIMATE+ВСЕ DLC+ОНЛАЙН всего за 499р. 349 руб. (супер цена). Внимание количество ограничено!!!

iTunes

1+1

iTunes

мы

iTunes

1

iTunes

Чернобыль

iTunes

Ральф против интернета

Лицензия

ПШазам

Лицензия

Оно 2

Лицензия

30
pack

ВАЖНО

!!Акция!!

Alien_RageХит недели

RePack

Resident Evil 21

ИГРА 18+

pack

RePack

jed

!!Акция!!

Alien_Rage

RePack

fifa19

RePack

Assassins Creed: Odyssey

RePack

NEED FOR SPEED™ PAYBACK

3 сезон

9 сезон

Бесстыжие 9 сезон

Все сериалы

все сериалы на PB.wtf

RePack

FAR CRY 5
Ребята, катастрофически не хватает 1900р. для оплаты серверов за Октябрь (всвязи с блокировками трафик упал в 3 раза), 1-2р., выручайте.
  

Заговор обреченных (Михаил Калатозов) [1950, СССР, драма, шпионский фильм, SATRip от AVP Studio] pb.wtf

Заговор обреченных через торрент pb.wtf

Размер: 745 MB | Добавлен: 4 года 2 мес. назад | Торрент скачан:2 раза
Скачать  

18-09-2015 08:41 Заговор обреченных Скачать торрент  

Заговор обреченных
Страна: СССР
Производство: Москинокомбинат

Жанр: драма, шпионский фильм
Год выпуска: 1950
Продолжительность: 01:36:53

Перевод: Не требуется
Cубтитры: нет
Оригинальная аудиодорожка: русский

Режиссер: Михаил Калатозов

В ролях:
Людмила Скопина, Павел Кадочников, Владимир Дружников, Борис Ситко, Всеволод Аксёнов, Луиза Кошукова, Людмила Врублевская, Иван Пельтцер, Илья Судаков, Софья Пилявская, Александр Вертинский, Максим Штраух, Владимир Марута, Олег Жаков, Валентина Серова, Ростислав Плятт, Иван Бобров...
Полный список актёров

Описание:
По одноименной пьесе Н.Вирты.
В одной из стран Восточной Европы зреет антидемократический заговор: по наущению западного посла организуется покушение на заместителя премьер-министра республики, коммунистку Ганну Лихта. На помощь коммунистам приходит Советский Союз - и вооруженные отряды рабочик арестовывают заговорщиков.

Источник: DVB
Качество видео: SATRip
Формат видео: AVI

Видео: 576x432 (4:3), 25 fps, XviD ~ 938 kbps avg, 0.151 bit/pixel
Аудио: 48 kHz, MP3 2.0, 128 kbps

Раздача от:
Общее
Полное имя : Zagovor.obrechennyh.1950.SATRip-745_[New-team]_by_AVP_Studio.avi
Формат : AVI
Формат/Информация : Audio Video Interleave
Размер файла : 745 Мбайт
Продолжительность : 1 ч. 36 м.
Общий поток : 1076 Кбит/сек
Программа кодирования : VirtualDubMod 1.5.10.3 | www.virtualdub-fr.org || (build 2550/release)
Библиотека кодирования : VirtualDubMod build 2550/release

Видео
Идентификатор : 0
Формат : MPEG-4 Visual
Профиль формата : Advanced Simple@L5
Параметр BVOP формата : 1
Параметр QPel формата : Нет
Параметр GMC формата : Без точки перехода
Параметр матрицы формата : Выборочная
Идентификатор кодека : XVID
Идентификатор кодека/Подсказка : XviD
Продолжительность : 1 ч. 36 м.
Битрейт : 938 Кбит/сек
Ширина : 576 пикселей
Высота : 432 пикселя
Соотношение сторон : 4:3
Частота кадров : 25,000 кадров/сек
Цветовое пространство : YUV
Субдискретизация насыщенности : 4:2:0
Битовая глубина : 8 бит
Тип развёртки : Прогрессивная
Метод сжатия : С потерями
Бит/(Пиксели*Кадры) : 0.151
Размер потока : 650 Мбайт (87%)
Библиотека кодирования : XviD 73

Аудио
Идентификатор : 1
Формат : MPEG Audio
Версия формата : Version 1
Профиль формата : Layer 3
Идентификатор кодека : 55
Идентификатор кодека/Подсказка : MP3
Продолжительность : 1 ч. 36 м.
Вид битрейта : Постоянный
Битрейт : 128 Кбит/сек
Каналы : 2 канала
Частота : 48,0 КГц
Метод сжатия : С потерями
Размер потока : 88,7 Мбайт (12%)
Выравнивание : Соединение по промежуткам
Продолжительность промежутка : 40 мс. (1,00 видеокадр)
Время предзагрузки промежутка : 504 мс.
Библиотека кодирования : LAME3.99r
Настройки программы : -m s -V 4 -q 2 -lowpass 17 -b 128
pb.wtf



Скачать Заговор обреченных через торрент http://s015.radikal.ru/i332/1509/e8/1dea1736ab6c.png Скачать фильм Заговор обреченных через торрент бесплантно в хорошем качестве Описание:По одноименной пьесе Н.Вирты.В одной из стран Восточной Европы зреет антидемократический заговор: по наущению западного посла ... 10 10 2
Info! Золотая раздача, скачанное не засчитывается.
Торрент: Зарегистрирован [2015-09-18 08:41] · скачан: 2 раз
Статус: √ проверено
Размер: 745 MB
Как cкачать? Как скачать Заговор обреченных через торрент | qTorrent

% Раздел Тема Автор DL S | L
Кино СССР [ 1.46 GB ] Заговор обреченных [1950 СССР шпионский фильм SATRip-AVC от AVP Studio] AVP Studio Скачать
1 | 0
Кино СССР [ 1.46 GB ] Заговор обреченных [1950 СССР шпионский фильм SATRip от AVP Studio] AVP Studio Скачать
1 | 0


>> Регистрируемся здесь <<






Отзывы и комментарии о схеме читаем и пишем здесь: ---> Отзывы и комментарии о схеме

Новые благодарочки в телеграм довольных пользователей:
скриншот   скриншот   скриншот   скриншот   скриншот
    Дорогой пользователь! Огромная просьба, поблагодарите релизера, оцените раздачу и оставьте свои комментарий, если Вы скачали Заговор обреченных через торрент бесплатно! Внесите свою лепту в развитие PiratBit!
    Комментировать посты могут только пользователи прошедшие не сложную регистрацию
    Показать сообщения:    

    Заговор обреченных через торрент
    Скачать бесплатно Заговор обреченных
    Заговор обреченных скачать торрент
    Заговор обреченных смотреть онлайн
    Cкачать фильм Заговор обреченных бесплатно
    Заговор обреченных скачать торрент в хорошем качестве
    Заговор обреченных смотреть онлайн бесплатно в хорошем качестве


    Вы не можете начинать темы
    Вы не можете отвечать на сообщения
    Вы не можете редактировать свои сообщения
    Вы не можете удалять свои сообщения
    Вы не можете голосовать в опросах
    Вы не можете прикреплять файлы к сообщениям
    Вы можете скачивать файлы