2 сезон

iTunes

MVO

1

2 сезон

iTunes

iTunes

1 сезон

RePack

30

Новинка

ВАЖНО

ИГРА 18+

pack

RePack

MK11
pack

Легкие деньги

RePack

jed

RePack

fifa19

RePack

RDR2

RePack

NEED FOR SPEED™ PAYBACK

4 сезон

9 сезон

Бесстыжие 9 сезон

Все сериалы

все сериалы на PB.wtf

RePack

FAR CRY 5

Anonymous, доброй ночи, мы не успеваем собрать деньги на оплату серверов за декабрь и январь, помогите нам пожалуйста в это трудное время. В качестве благодарности мы отключим Вам всю рекламу на сайте (укажите свой ник в строку Ваше имя)!

×
  
Magnet ссылка

David Gilmour - Rattle That Lock - 2015/FLAC/ tracks+.cue/ lossless/ Psychedelic Rock, Progressive Rock pb.wtf

David Gilmour - Rattle That Lock - 2015 через торрент pb.wtf

Размер: 296 MB | Добавлен: 5 лет 4 мес. назад | Торрент скачан:52 раза
Скачать  

18-09-2015 10:01 David Gilmour - Rattle That Lock - 2015 Скачать торрент  


David Gilmour / Rattle That Lock

Год издания: 2015
Страна: UK
Жанр: Psychedelic Rock, Progressive Rock
Продолжительность: 00:51:26
Лейбл издания: Sony Music
Страна-выпуска диска: Germany
Номер по каталогу: LC 00162
Формат: FLAC
Битрейт аудио: lossless
Тип рипа: tracks+.cue
Наличие сканов в содержимом раздачи: да


01. 5 a.m. (03:05)
02. Rattle That Lock (04:56)
03. Faces Of Stone (05:33)
04. A Boat Lies Waiting (04:35)
05. Dancing Right In Front Of Me (06:12)
06. In Any Tongue (06:47)
07. Beauty (04:29)
08. The Girl In The Yellow Dress (05:26)
09. Today (05:56)
10. And Then... (04:30)

Код:

AUDIOCHECKER v2.0 beta (build 457) - by Dester - opdester@freemail.hu
~~~~~~~~~~~~~~~~~~~~~~~~~~~~~~~~~~

Started at: четверг, 17. 09. 2015. - 13:27.04
10 files found

01 -===- C:\Users\Андрей\Desktop\David Gilmour - Rattle That Lock (2015)\01 - 5 a.m..flac
  Extracted successfully
  Conclusion: this track is CDDA with probability 100%
  Tempfile successfully deleted.

02 -===- C:\Users\Андрей\Desktop\David Gilmour - Rattle That Lock (2015)\02 - Rattle That Lock.flac
  Extracted successfully
  Conclusion: this track is CDDA with probability 100%
  Tempfile successfully deleted.

03 -===- C:\Users\Андрей\Desktop\David Gilmour - Rattle That Lock (2015)\03 - Faces Of Stone.flac
  Extracted successfully
  Conclusion: this track is CDDA with probability 100%
  Tempfile successfully deleted.

04 -===- C:\Users\Андрей\Desktop\David Gilmour - Rattle That Lock (2015)\04 - A Boat Lies Waiting.flac
  Extracted successfully
  Conclusion: this track is CDDA with probability 100%
  Tempfile successfully deleted.

05 -===- C:\Users\Андрей\Desktop\David Gilmour - Rattle That Lock (2015)\05 - Dancing Right In Front Of Me.flac
  Extracted successfully
  Conclusion: this track is CDDA with probability 100%
  Tempfile successfully deleted.

06 -===- C:\Users\Андрей\Desktop\David Gilmour - Rattle That Lock (2015)\06 - In Any Tongue.flac
  Extracted successfully
  Conclusion: this track is CDDA with probability 100%
  Tempfile successfully deleted.

07 -===- C:\Users\Андрей\Desktop\David Gilmour - Rattle That Lock (2015)\07 - Beauty.flac
  Extracted successfully
  Conclusion: this track is CDDA with probability 99%
  Tempfile successfully deleted.

08 -===- C:\Users\Андрей\Desktop\David Gilmour - Rattle That Lock (2015)\08 - The Girl In The Yellow Dress.flac
  Extracted successfully
  Conclusion: this track is CDDA with probability 100%
  Tempfile successfully deleted.

09 -===- C:\Users\Андрей\Desktop\David Gilmour - Rattle That Lock (2015)\09 - Today.flac
  Extracted successfully
  Conclusion: this track is CDDA with probability 100%
  Tempfile successfully deleted.

10 -===- C:\Users\Андрей\Desktop\David Gilmour - Rattle That Lock (2015)\10 - And Then....flac
  Extracted successfully
  Conclusion: this track is CDDA with probability 100%
  Tempfile successfully deleted.

Finished at: четверг, 17. 09. 2015. - 13:33.01 (operation time: 0:05.57)

Код:

PERFORMER "David Gilmour"
TITLE "Rattle That Lock"
FILE "David Gilmour - Rattle That Lock\01 - 5 a.m..flac" WAVE
  TRACK 01 AUDIO
    TITLE "5 a.m."
    PERFORMER "David Gilmour"
    INDEX 01 00:00:00
FILE "David Gilmour - Rattle That Lock\02 - Rattle That Lock.flac" WAVE
  TRACK 02 AUDIO
    TITLE "Rattle That Lock"
    PERFORMER "David Gilmour"
    INDEX 01 00:00:00
FILE "David Gilmour - Rattle That Lock\03 - Faces Of Stone.flac" WAVE
  TRACK 03 AUDIO
    TITLE "Faces Of Stone"
    PERFORMER "David Gilmour"
    INDEX 01 00:00:00
FILE "David Gilmour - Rattle That Lock\04 - A Boat Lies Waiting.flac" WAVE
  TRACK 04 AUDIO
    TITLE "A Boat Lies Waiting"
    PERFORMER "David Gilmour"
    INDEX 01 00:00:00
FILE "David Gilmour - Rattle That Lock\05 - Dancing Right In Front Of Me.flac" WAVE
  TRACK 05 AUDIO
    TITLE "Dancing Right In Front Of Me"
    PERFORMER "David Gilmour"
    INDEX 01 00:00:00
FILE "David Gilmour - Rattle That Lock\06 - In Any Tongue.flac" WAVE
  TRACK 06 AUDIO
    TITLE "In Any Tongue"
    PERFORMER "David Gilmour"
    INDEX 01 00:00:00
FILE "David Gilmour - Rattle That Lock\07 - Beauty.flac" WAVE
  TRACK 07 AUDIO
    TITLE "Beauty"
    PERFORMER "David Gilmour"
    INDEX 01 00:00:00
FILE "David Gilmour - Rattle That Lock\08 - The Girl In The Yellow Dress.flac" WAVE
  TRACK 08 AUDIO
    TITLE "The Girl In The Yellow Dress"
    PERFORMER "David Gilmour"
    INDEX 01 00:00:00
FILE "David Gilmour - Rattle That Lock\09 - Today.flac" WAVE
  TRACK 09 AUDIO
    TITLE "Today"
    PERFORMER "David Gilmour"
    INDEX 01 00:00:00
FILE "David Gilmour - Rattle That Lock\10 - And Then....flac" WAVE
  TRACK 10 AUDIO
    TITLE "And Then..."
    PERFORMER "David Gilmour"
    INDEX 01 00:00:00


Не забываем говорить pb.wtf



Скачать David Gilmour - Rattle That Lock - 2015 через торрент http://i68.fastpic.ru/big/2015/0918/b2/9e699ec67efae0a9e7425e518c9777b2.png Скачать фильм David Gilmour - Rattle That Lock - 2015через торрент бесплантно в хорошем качестве Трэклист 5 a.m. (03:05) Rattle That Lock (04:56) Faces Of Stone (05:33) A Boat Lies Waiting (04:35) Dancing Right ... 9.7 10 7
Торрент: Зарегистрирован [2015-09-18 10:01] · скачан: 52 раз
Статус: √ проверено
Размер: 296 MB
Как cкачать? Как скачать David Gilmour - Rattle That Lock - 2015 через торрент | UTorrent

28-11-2019 20:33  

Отключить всю рекламу на сайте

    Дорогой пользователь! Огромная просьба, поблагодарите релизера, оцените раздачу и оставьте свои комментарий, если Вы скачали David Gilmour - Rattle That Lock - 2015 через торрент бесплатно! Внесите свою лепту в развитие PiratBit!
    Комментировать посты могут только пользователи прошедшие не сложную регистрацию
    Показать сообщения:    

    David Gilmour - Rattle That Lock - 2015 через торрент
    Скачать бесплатно David Gilmour - Rattle That Lock - 2015
    David Gilmour - Rattle That Lock - 2015 скачать торрент
    David Gilmour - Rattle That Lock - 2015 смотреть онлайн
    Cкачать фильм David Gilmour - Rattle That Lock - 2015 бесплатно
    David Gilmour - Rattle That Lock - 2015 скачать торрент в хорошем качестве
    David Gilmour - Rattle That Lock - 2015 смотреть онлайн бесплатно в хорошем качестве


    Вы не можете начинать темы
    Вы не можете отвечать на сообщения
    Вы не можете редактировать свои сообщения
    Вы не можете удалять свои сообщения
    Вы не можете голосовать в опросах
    Вы не можете прикреплять файлы к сообщениям
    Вы можете скачивать файлы