Ссылка на приватное зеркало нашего сайта всего за 1$. Внимание количество ограничено!!!

2 сезон

iTunes

1 сезон

1

2 сезон

2 сезон

iTunes

1 сезон

RePack

30

Ultimate

ВАЖНО

ИГРА 18+

pack

RePack

MK11
pack

Забери бонус

RePack

jed

!!Акция!!

Alien_Rage

RePack

fifa19

RePack

Assassins Creed: Odyssey

RePack

NEED FOR SPEED™ PAYBACK

4 сезон

9 сезон

Бесстыжие 9 сезон

Все сериалы

все сериалы на PB.wtf

RePack

FAR CRY 5
  

Мстители: Эра Альтрона (Джосс Уидон) [2015 г., Фантастика, боевик, триллер, приключения, Blu-ray CEE 1080p] Дубляж, Лицензия pb.wtf

Мстители: Эра Альтрона через торрент pb.wtf

Размер: 39.22 GB | Добавлен: 5 лет 2 мес. назад | Торрент скачан:34 раза
Скачать  

18-09-2015 14:30 Мстители: Эра Альтрона Скачать торрент  

Мстители: Эра Альтрона / Avengers: Age of Ultron
Год выпуска: 2015
Страна: США
Жанр: Фантастика, боевик, триллер, приключения
Продолжительность: 02:21:18
Перевод: Дубляж, Лицензия+ чешский+ польский+ казахский+ Оригинал+ Коментарии
Субтитры: Русские, английские, польские, чешские, румынские

Режиссер: Джосс Уидон

В ролях: Роберт Дауни мл., Крис Хемсворт, Крис Эванс, Скарлетт Йоханссон, Марк Руффало, Джереми Реннер, Аарон Тейлор-Джонсон, Элизабет Олсен, Джеймс Спэйдер, Сэмюэл Л. Джексон, Коби Смолдерс, Пол Беттани, Линда Карделлини, Хейли Этвелл, Том Хиддлстон, Идрис Эльба, Энди Серкис, Стэн Ли, Стеллан Скарсгард, Лу Ферриньо

Описание: Человечество на грани уничтожения. На этот раз людям угрожает Альтрон — искусcтвенный интеллект, ранее созданый для того, чтобы защищать Землю от любых угроз. Однако, главной угрозой он посчитал человечество. Международная организация Щ. И. Т распалась, и теперь мир не способен справиться с таким мощным врагом, потому люди вновь обращаются за помощью к Величайшим Героям Земли — Мстителям. Однако Альтрон слишком силен, и есть большая вероятность, что даже им не удастся остановить начало надвигающейся Эры Альтрона, где нет места для людей…

Качество: Blu-ray
Формат: BDMV
Видео: MPEG-4 AVC, (1920x1080),23741 Кбит/с, 23.976 кадра/сек
Аудио#1: английский / DTS-HD MA / 3545 kbps / 5.1 / 48 kHz / 3545 kbps / 24-bit (DTS Core: 5.1 / 48 kHz / 1509 kbps / 24-bit)
Аудио#2: чешский / AC3 / 640 kbps / 5.1 / 48 kHz / 640 kbps / DN -4dB
Аудио#3: польский / AC3 / 640 kbps / 5.1 / 48 kHz / 640 kbps / DN -4dB
Аудио#4: русский / AC3 / 640 kbps / 5.1 / 48 kHz / 640 kbps / DN -4dB
Аудио#5: английский / AC3 / 192 kbps / 2.0 / 48 kHz / 192 kbps / DN -4dB (комментарии)
Аудио#6: казахский / AC3 / 320 kbps / 2.0 / 48 kHz / 320 kbps / DN -4dB / Dolby Surround
скриншот   скриншот   скриншот  

Тип потока: Видео
Длительность: 02:21:18
Кодек: AVC
Кодек/описание: Advanced Video Codec
Кодек/профиль: High@L4.1
Кодек/ID: 27
Кодек/CABAC: Yes
Кодек/ReFrames: 4 frames
Размеры изображения: 1920 x 1080 (16:9)
Частота кадров: 23.976 fps
Битрейт/макс: 34.0 Mbps
Битрейт/тип: VBR
Цветовое пространство: YUV
Тип развёртки: Progressive
Колориметрия: 4:2:0
Глубина: 8 bits
:
Тип потока: Звук #1
Длительность: 02:21:18.752
Кодек: DTS
Кодек/описание: Digital Theater Systems
Кодек/профиль: MA / Core
Режим смешивания: Stream extension
Кодек/ID: 134
Частота дискретизации: 48.0 KHz
Каналов: 6 channels
Битрейт: Unknown / 1 509 Kbps
Битрейт/тип: Variable
Глубина: 24 bits
Метод сжатия: Lossless / Lossy
:
Тип потока: Звук #2
Длительность: 02:21:18.784
Кодек: AC-3
Кодек/описание: Audio Coding 3
Кодек/ID: 129
Частота дискретизации: 48.0 KHz
Каналов: 6 channels
Битрейт: 640 Kbps
Битрейт/тип: Constant
Размер потока: 647 MiB (2%)
Глубина: 16 bits
Метод сжатия: Lossy
:
Тип потока: Звук #3
Длительность: 02:21:18.784
Кодек: AC-3
Кодек/описание: Audio Coding 3
Кодек/ID: 129
Частота дискретизации: 48.0 KHz
Каналов: 6 channels
Битрейт: 640 Kbps
Битрейт/тип: Constant
Размер потока: 647 MiB (2%)
Глубина: 16 bits
Метод сжатия: Lossy
:
Тип потока: Звук #4
Длительность: 02:21:18.784
Кодек: AC-3
Кодек/описание: Audio Coding 3
Кодек/ID: 129
Частота дискретизации: 48.0 KHz
Каналов: 6 channels
Битрейт: 640 Kbps
Битрейт/тип: Constant
Размер потока: 647 MiB (2%)
Глубина: 16 bits
Метод сжатия: Lossy
:
Тип потока: Звук #5
Длительность: 02:21:18.784
Кодек: AC-3
Кодек/описание: Audio Coding 3
Кодек/профиль: Dolby Digital
Кодек/ID: 129
Частота дискретизации: 48.0 KHz
Каналов: 2 channels
Битрейт: 320 Kbps
Битрейт/тип: Constant
Размер потока: 323 MiB (1%)
Глубина: 16 bits
Метод сжатия: Lossy
:
Тип потока: Звук #6
Длительность: 02:21:18.784
Кодек: AC-3
Кодек/описание: Audio Coding 3
Кодек/ID: 129
Частота дискретизации: 48.0 KHz
Каналов: 2 channels
Битрейт: 192 Kbps
Битрейт/тип: Constant
Размер потока: 194 MiB (1%)
Глубина: 16 bits
Метод сжатия: Lossy
:
Тип потока: Субтитры #1
Формат: PGS
:
Тип потока: Субтитры #2
Формат: PGS
:
Тип потока: Субтитры #3
Формат: PGS
:
Тип потока: Субтитры #4
Формат: PGS
:
Тип потока: Субтитры #5
Формат: PGS
:
Тип потока: Субтитры #6
Формат: PGS
:
Тип потока: Субтитры #7
Формат: PGS
:
Тип потока: Субтитры #8
Формат: PGS

DISC INFO:

Disc Title: AVENGERS AGE OF ULTRON 2015
Disc Size: 42 110 841 144 bytes
Protection: AACS
BD-Java: Yes
BDInfo: 0.5.8

PLAYLIST REPORT:

Name: 00800.MPLS
Length: 2:21:18.761 (h:m:s.ms)
Size: 33 788 565 504 bytes
Total Bitrate: 31,88 Mbps

VIDEO:

Codec Bitrate Description
----- ------- -----------
MPEG-4 AVC Video 23741 kbps 1080p / 23,976 fps / 16:9 / High Profile 4.1

AUDIO:

Codec Language Bitrate Description
----- -------- ------- -----------
DTS-HD Master Audio English 3545 kbps 5.1 / 48 kHz / 3545 kbps / 24-bit (DTS Core: 5.1 / 48 kHz / 1509 kbps / 24-bit)
Dolby Digital Audio Czech 640 kbps 5.1 / 48 kHz / 640 kbps / DN -4dB
Dolby Digital Audio Polish 640 kbps 5.1 / 48 kHz / 640 kbps / DN -4dB
Dolby Digital Audio Russian 640 kbps 5.1 / 48 kHz / 640 kbps / DN -4dB
Dolby Digital Audio English 192 kbps 2.0 / 48 kHz / 192 kbps / DN -4dB
Dolby Digital Audio Kazakh 320 kbps 2.0 / 48 kHz / 320 kbps / DN -4dB / Dolby Surround

SUBTITLES:

Codec Language Bitrate Description
----- -------- ------- -----------
Presentation Graphics English 38,511 kbps
Presentation Graphics English 62,377 kbps
Presentation Graphics Czech 30,752 kbps
Presentation Graphics Polish 26,738 kbps
Presentation Graphics Romanian 30,457 kbps
Presentation Graphics Russian 31,755 kbps
Presentation Graphics Russian 63,011 kbps
Presentation Graphics Russian 0,211 kbps
Supplements
Фильм о фильме
Удаленные и расширенные сцены
Смешные дубли
Комментарий режиссера
Информация
pb.wtf



Скачать Мстители: Эра Альтрона через торрент http://pic1.kartinco.top/images/10/vq63p.jpg Скачать фильм Мстители: Эра Альтрона через торрент бесплантно в хорошем качестве Описание: Человечество на грани уничтожения. На этот раз людям угрожает Альтрон — искусcтвенный интеллект, ранее созданый для того, чтобы ... 9.9 10 9
Info! Золотая раздача, скачанное не засчитывается.
Торрент: Зарегистрирован [2015-09-18 14:30] · скачан: 34 раз
Статус: √ проверено
Размер: 39.22 GB
Как cкачать? Как скачать Мстители: Эра Альтрона через торрент | qTorrent

% Раздел Тема Автор DL S | L
Фильмы (HD 720p, 1080p) (48-60 fps) [ 6.73 GB ] Мстители: Эра Альтрона / Avengers: Age of Ultron [2015 BDRip - HEVC 1080p 12 bit 60 FPS] - dd2d3 Скачать
3 | 0
Фильмы [HD 720p, 1080p] (Хороший звук DUB, MVO) [ 7.78 GB ] Мстители: Эра Альтрона / Avengers: Age of Ultron [2015 BDRip 1080p HEVC ()] Мичман37 Скачать
5 | 0

28-11-2019 20:33  

Отключить всю рекламу на сайте

18-09-2015 14:34 Мстители: Эра Альтрона Скачать торрент  

5000 тысяч очков золотоpb.wtf



30-10-2015 19:22 Мстители: Эра Альтрона Скачать торрент  

станьте на раздачу народ!!!pb.wtf



    Дорогой пользователь! Огромная просьба, поблагодарите релизера, оцените раздачу и оставьте свои комментарий, если Вы скачали Мстители: Эра Альтрона через торрент бесплатно! Внесите свою лепту в развитие PiratBit!
    Комментировать посты могут только пользователи прошедшие не сложную регистрацию
    Показать сообщения:    

    Мстители: Эра Альтрона через торрент
    Скачать бесплатно Мстители: Эра Альтрона
    Мстители: Эра Альтрона скачать торрент
    Мстители: Эра Альтрона смотреть онлайн
    Cкачать фильм Мстители: Эра Альтрона бесплатно
    Мстители: Эра Альтрона скачать торрент в хорошем качестве
    Мстители: Эра Альтрона смотреть онлайн бесплатно в хорошем качестве


    Вы не можете начинать темы
    Вы не можете отвечать на сообщения
    Вы не можете редактировать свои сообщения
    Вы не можете удалять свои сообщения
    Вы не можете голосовать в опросах
    Вы не можете прикреплять файлы к сообщениям
    Вы можете скачивать файлы