Ссылка на приватное зеркало всего за 1$. Внимание количество ограничено!!!

OK

1+1

iTunes

мы

OK

1

WEB-DLRip

Джокер

Пифагор

Ведьмак / The Witcher сериал

iTunes

ПШазам

ОК

Оно 2

iTunes

30
pack

Вам бонус

ВАЖНО

!!Акция!!

Alien_RageХит недели

RePack

Resident Evil 21

ИГРА 18+

pack

RePack

jed

RePack

fifa19

RePack

Assassins Creed: Odyssey

RePack

NEED FOR SPEED™ PAYBACK

4 сезон

9 сезон

Бесстыжие 9 сезон

Все сериалы

все сериалы на PB.wtf

RePack

FAR CRY 5
  

Золушка (Кеннет Брана) [2015 г., фэнтези, драма, мелодрама, семейный, HDRip by Dean24] (Дубляж, Лицензия) pb.wtf

Золушка через торрент pb.wtf

Размер: 1.47 GB | Добавлен: 4 года 4 мес. назад | Торрент скачан:635 раз
Скачать  

18-09-2015 14:57 Золушка Скачать торрент  

Золушка / CinderellaГод выпуска: 2015
Страна: США, Великобритания
Жанр: фэнтези, драма, мелодрама, семейный
Продолжительность: 01:45:21
Перевод: Дубляж | Лицензия
Субтитры: Нет

Режиссер: Кеннет Брана
Продюссер: Дэвид Баррон, Саймон Кинберг, Эллисон Шермур
Сценарий: Крис Вайц

Бюджет: $95 000 000
Премьера в мире: 13 февраля 2015



В ролях: Лили Джеймс, Кейт Бланшетт, Ричард Мэдден, Хелена Бонем Картер, Нонсо Анози, Стеллан Скарсгард, Софи МакШера, Холлидей Грейнджер, Дерек Джекоби, Бен Чаплин

Описание: Отец молодой девушки по имени Элла, овдовев, женится во второй раз, и вскоре Элла оказывается один на один с жадными и завистливыми новыми родственницами — мачехой Леди Тремэйн и ее дочерьми — Анастасией и Дризеллой. Из хозяйки дома она превращается в служанку, вечно испачканную золой, за что и получает от своих сварливых сводных сестриц прозвище — Золушка. Несмотря на злоключения, выпавшие на ее долю, Золушка не отчаивается, ведь даже в самые тяжелые моменты находится что-то, что помогает ей думать о хорошем: например, случайная встреча на лесной тропинке с прекрасным юношей. Элла даже не предполагает, что встретилась с самим принцем, и что вскоре Фея-крестная навсегда поменяет её жизнь к лучшему.

Качество: HDRip | BDRip 720p
Формат: AVI
Видео кодек: XviD
Аудио кодек: AC3
Видео: 720x304 (2.37:1), 23.976 fps, XviD build 50 ~1599 kbps avg, 0.30 bit/pixel
Аудио: 48 kHz, AC3 Dolby Digital, 3/2 (L,C,R,l,r) + LFE ch, ~384 kbps



Автор рипа: Dean24


скриншот   скриншот   скриншот   скриншот  
Общее
Полное имя : D:\Мои документы\Фильмы\Сайт\Cinderella.HDRip.avi
Формат : AVI
Формат/Информация : Audio Video Interleave
Размер файла : 1,47 Гбайт
Продолжительность : 1 ч. 45 м.
Общий поток : 1993 Кбит/сек
Программа кодирования : VirtualDubMod 1.5.10.3 | (build 2550/release)
Библиотека кодирования : VirtualDubMod build 2550/release

Видео
Идентификатор : 0
Формат : MPEG-4 Visual
Профиль формата : Advanced Simple@L5
Параметр BVOP формата : 3
Параметр QPel формата : Нет
Параметр GMC формата : Без точки перехода
Параметр матрицы формата : Default (H.263)
Идентификатор кодека : XVID
Идентификатор кодека/Подсказка : XviD
Продолжительность : 1 ч. 45 м.
Битрейт : 1600 Кбит/сек
Ширина : 720 пикселей
Высота : 304 пикселя
Соотношение сторон : 2,35:1
Частота кадров : 23,976 кадра/сек
Цветовое пространство : YUV
Субдискретизация насыщенности : 4:2:0
Битовая глубина : 8 бит
Тип развёртки : Прогрессивная
Метод сжатия : С потерями
Бит/(Пиксели*Кадры) : 0.305
Размер потока : 1,18 Гбайт (80%)
Библиотека кодирования : XviD 1.2.1 (UTC 2008-12-04)

Аудио
Идентификатор : 1
Формат : AC-3
Формат/Информация : Audio Coding 3
Расширение режима : CM (complete main)
Параметр Endianness формата : Big
Идентификатор кодека : 2000
Продолжительность : 1 ч. 45 м.
Вид битрейта : Постоянный
Битрейт : 384 Кбит/сек
Каналы : 6 каналов
Расположение каналов : Front: L C R, Side: L R, LFE
Частота : 48,0 КГц
Битовая глубина : 16 бит
Метод сжатия : С потерями
Размер потока : 289 Мбайт (19%)
Выравнивание : Разделение по промежуткам
Продолжительность промежутка : 42 мс. (1,00 видеокадр)
Время предзагрузки промежутка : 500 мс.

pb.wtf



Скачать Золушка через торрент http://i47.fastpic.ru/big/2015/0918/83/55b222aa09e7277a8510e3f79a7bb383.jpg Скачать фильм Золушка через торрент бесплантно в хорошем качестве Описание: Отец молодой девушки по имени Элла, овдовев, женится во второй раз, и вскоре Элла оказывается один на один с жадными и ... 9.9 10 18
Info! Золотая раздача, скачанное не засчитывается.
Торрент: Зарегистрирован [2015-09-18 14:57] · скачан: 635 раз
Статус: √ проверено
Размер: 1.47 GB
Как cкачать? Как скачать Золушка через торрент | qTorrent

% Раздел Тема Автор DL S | L
Детективы, Боевики, Триллеры [ 825 MB ] Данил Корецкий - Лабутены для Золушки [Аравушкин Александр 2019 128 kbps MP3] bober100 Скачать
2 | 0
Ultra HD (UHD: 2K, 4K, 8K) — видео сверхвысокой чёткости [ 15.32 GB ] Золушка / Cinderella [2015 UHD BDRip 2160p] DUB [] sheker187 Скачать
1 | 0
Ultra HD (UHD: 2K, 4K, 8K) — видео сверхвысокой чёткости [ 51.72 GB ] Золушка / Cinderella [2015 UHD BDRemux 2160p] DUB [] sheker187 Скачать
1 | 0
T Иностранные мультфильмы [ 1.45 GB ] Золушка и тайный принц / Cinderella and Secret Prince [2019 Мультфильм WEB-DLRip] MVO [HDRezka Studio] - ExKinoRay Enigma2010 Скачать
124 | 9
Наши новые фильмы 2018-2019 [ 1.56 GB ] Золушка [2018 Мюзикл HDTVRip] Sherif Скачать
1 | 0
Наши фильмы (HD, WEB-DL 720p, 1080p) [ 8.41 GB ] Золушка [2018 Мюзикл HDTV 1080i] bober100 Скачать
1 | 0
Детские отечественные фильмы [ 2.78 GB ] Золушка [1947 мюзикл WEBRip 1080p] [ЦВЕТНАЯ] Полная версия WorldSM Скачать
1 | 0

28-11-2019 20:33  

Отключить всю рекламу на сайте

    Дорогой пользователь! Огромная просьба, поблагодарите релизера, оцените раздачу и оставьте свои комментарий, если Вы скачали Золушка через торрент бесплатно! Внесите свою лепту в развитие PiratBit!
    Комментировать посты могут только пользователи прошедшие не сложную регистрацию
    Показать сообщения:    

    Золушка через торрент
    Скачать бесплатно Золушка
    Золушка скачать торрент
    Золушка смотреть онлайн
    Cкачать фильм Золушка бесплатно
    Золушка скачать торрент в хорошем качестве
    Золушка смотреть онлайн бесплатно в хорошем качестве


    Вы не можете начинать темы
    Вы не можете отвечать на сообщения
    Вы не можете редактировать свои сообщения
    Вы не можете удалять свои сообщения
    Вы не можете голосовать в опросах
    Вы не можете прикреплять файлы к сообщениям
    Вы можете скачивать файлы