Ссылка на приватное зеркало нашего сайта всего за 1$. Внимание количество ограничено!!!

2 сезон

iTunes

1 сезон

1

2 сезон

2 сезон

iTunes

1 сезон

RePack

30

Ultimate

ВАЖНО

ИГРА 18+

pack

RePack

MK11
pack

Забери бонус

RePack

jed

!!Акция!!

Alien_Rage

RePack

fifa19

RePack

Assassins Creed: Odyssey

RePack

NEED FOR SPEED™ PAYBACK

4 сезон

9 сезон

Бесстыжие 9 сезон

Все сериалы

все сериалы на PB.wtf

RePack

FAR CRY 5
  

Готэм / Gotham / Сезон: 2 / Серия 1-21 из 22 (Т.Дж. Скотт / T.J. Scott, Дэнни Кэннон / Danny Cannon, Пол А. Эдвардс / Paul A. Edwards) [2015, США, триллер, драма, криминал, WEB-DLRip] MVO [NewStudio] pb.wtf

Готэм через торрент pb.wtf

Размер: 11.06 GB | Добавлен: 4 года 6 мес. назад | Торрент скачан:3 раза
Скачать  

19-09-2015 03:16 Готэм Скачать торрент  


Готэм / Gotham

"Добро. Зло. Начало"


  • Год выпуска: 2015
  • Страна: США
  • Жанр: триллер, драма, криминал
  • Продолжительность: 00:44:23 (Серия)
  • Перевод: Профессиональный многоголосый закадровый [NewStudio]

  • Режиссер: Т.Дж. Скотт / T.J. Scott, Дэнни Кэннон / Danny Cannon, Пол А. Эдвардс / Paul A. Edwards
  • В ролях:

    Бен МакКензи (James Gordon), Донал Лог (Harvey Bullock), Дэвид Мазоуз (Bruce Wayne), Забрина Гевара (Sarah Essen), Шон Пертуи (Alfred Pennyworth), Робин Лорд Тейлор (Oswald Cobblepot), Эрин Ричардс (Barbara Kean), Камрен Бикондова (Selina Kyle), Кори Майкл Смит (Edward Nygma), Джада Пинкетт Смит (Fish Mooney), Дрю Пауэлл (Butch Gilzean), Морена Баккарин (Dr. Leslie Thompkins)

  • Описание:
    Детектив Джеймс Гордон и его напарник Харви Баллок приступили к работе в департаменте полиции Готэма. Они расследуют убийства. Последнее дело очень сложное, поэтому к мужчинам примыкает Сара Эссен, которая поможет вести дело по Томасу и Марте Уэйн. Гордон за время расследования успевает познакомиться с сыном убитых Брюсом Уэйном, который после гибели родителей находится под опекой дворецкого Альфреда, который работает при семье Уэйн. Но не только смерть Томаса и Марты является главным делом Гордона. Ему приходится решать проблемы с местным главарем банды - женщиной по имени Фиш Муни, а также с очень опасными злодеями, населяющими Готэм. Среди проходимцев затесались Освальд Кобблпот и Селина Кайл. В итоге, Гордон фокусируется на дружбе с молодым Брюсом, чтобы в будущем сделать из маленького мальчика Тёмного рыцаря - защитника Готэма.
  • Рейтинг:



  • Качество: WEB-DLRip
  • Формат: :AVI
  • Видео кодек: XviD
  • Аудио кодек: MP3
  • Видео: 1444 Кбит/сек, 720*400 (16:9), в 23,976 кадра/сек, MPEG-4 Visual (XviD)
  • Аудио №1: Русский 128 Кбит/сек, 48,0 КГц, 2 канала, MPEG Audio (MP3)
  • Аудио №2: Английский 128 Кбит/сек, 48,0 КГц, 2 канала, MPEG Audio (MP3)
  • Релиз от: GEKADOL

    Код:

    Внимание! Раздача ведётся путём добавления новых серий; при каждом добавлении создаётся новый торрент. Чтобы начать докачку новой серии, пользователям необходимо сделать следующее:
    (1) остановить скачивание,
    (2) удалить старый торрент у себя из клиента (старые серии удалять не надо),
    (3) скачать новый торрент и запустить его у себя в клиенте вместо старого, при этом указать клиенту путь в старую папку куда и должно происходить скачивание новых серий.
    Ваш клиент при этом должен произвести хеширование (проверку) старой папки (если не производит сам - помогите ему сделать это), и будет докачивать только те серии которых у вас ещё нет. Старые серии при этом не удаляются, а продолжают раздаваться!
    Eсли вы уже удалили старые серии, то предотвратить повторную закачку старых серий можно, отжав галочку в соответствующих местах при запуске нового торрента. По возможности, желательно не удалять старые серии как можно дольше чтобы релизёр не столько продолжал раздавать старые серии, а смог сконцентрироваться на новых.


    Код:

    Общее
    Полное имя                               : H:\Gotham (S02) NewStudio\Gotham.s02e02.WEBDLRip.NewStudio.avi
    Формат                                   : AVI
    Формат/Информация                        : Audio Video Interleave
    Размер файла                             : 540 Мбайт
    Продолжительность                        : 44 м.
    Общий поток                              : 1714 Кбит/сек
    Программа кодирования                    : VirtualDubMod 1.5.10.3 | www.virtualdub-fr.org || (build 2550/release)
    Библиотека кодирования                   : VirtualDubMod build 2550/release

    Видео
    Идентификатор                            : 0
    Формат                                   : MPEG-4 Visual
    Профиль формата                          : Advanced Simple@L5
    Параметр BVOP формата                    : 2
    Параметр QPel формата                    : Нет
    Параметр GMC формата                     : Без точки перехода
    Параметр матрицы формата                 : Default (MPEG)
    Идентификатор кодека                     : XVID
    Идентификатор кодека/Подсказка           : XviD
    Продолжительность                        : 44 м.
    Битрейт                                  : 1444 Кбит/сек
    Ширина                                   : 720 пикселей
    Высота                                   : 400 пикселей
    Соотношение сторон                       : 16:9
    Частота кадров                           : 23,976 кадра/сек
    Цветовое пространство                    : YUV
    Субдискретизация насыщенности            : 4:2:0
    Битовая глубина                          : 8 бит
    Тип развёртки                            : Прогрессивная
    Метод сжатия                             : С потерями
    Бит/(Пиксели*Кадры)                      : 0.209
    Размер потока                            : 455 Мбайт (84%)
    Библиотека кодирования                   : XviD 73

    Аудио #1
    Идентификатор                            : 1
    Формат                                   : MPEG Audio
    Версия формата                           : Version 1
    Профиль формата                          : Layer 3
    Идентификатор кодека                     : 55
    Идентификатор кодека/Подсказка           : MP3
    Продолжительность                        : 44 м.
    Вид битрейта                             : Постоянный
    Битрейт                                  : 128 Кбит/сек
    Каналы                                   : 2 канала
    Частота                                  : 48,0 КГц
    Метод сжатия                             : С потерями
    Размер потока                            : 40,4 Мбайт (7%)
    Выравнивание                             : Соединение по промежуткам
    Продолжительность промежутка             : 42  мс. (1,00 видеокадр)
    Время предзагрузки промежутка            : 504  мс.

    Аудио #2
    Идентификатор                            : 2
    Формат                                   : MPEG Audio
    Версия формата                           : Version 1
    Профиль формата                          : Layer 3
    Режим                                    : Joint stereo
    Расширение режима                        : MS Stereo
    Идентификатор кодека                     : 55
    Идентификатор кодека/Подсказка           : MP3
    Продолжительность                        : 44 м.
    Вид битрейта                             : Постоянный
    Битрейт                                  : 128 Кбит/сек
    Каналы                                   : 2 канала
    Частота                                  : 48,0 КГц
    Метод сжатия                             : С потерями
    Размер потока                            : 40,4 Мбайт (7%)
    Выравнивание                             : Соединение по промежуткам
    Продолжительность промежутка             : 42  мс. (1,00 видеокадр)
    Время предзагрузки промежутка            : 504  мс.
    Библиотека кодирования                   : LAME3.99.5




    Скриншоты:
    скриншот   скриншот   скриншот   скриншот   скриншот   скриншот   скриншот  
    скриншот  

    Раздача ведётся путём добавления новых серий. Добавлена 21 серия (19.05.2016).Просьба перекачать торрент файл.

    pb.wtf



  • Скачать Готэм через торрент http://pic1.kartinco.top/images/10/76fnr.jpg Скачать фильм Готэм через торрент бесплантно в хорошем качестве Описание: Детектив Джеймс Гордон и его напарник Харви Баллок приступили к работе в департаменте полиции Готэма. Они расследуют убийства. ... 9 10 31
    Info! Золотая раздача, скачанное не засчитывается.
    Торрент: Зарегистрирован [2016-05-19 00:41] · скачан: 3 раз
    Статус: √ проверено
    Размер: 11.06 GB
    Как cкачать? Как скачать Готэм через торрент | qTorrent



    Последний раз редактировалось: GEKADOL (2016-05-19 00:41), всего редактировалось 12 раз(а)

    28-11-2019 20:33  

    Отключить всю рекламу на сайте

    26-11-2015 04:15 Готэм Скачать торрент  

    подписьpb.wtf



    13-04-2016 13:35 Готэм Скачать торрент  

    Поправь подпись о последнем добавлении серии))pb.wtf



      Дорогой пользователь! Огромная просьба, поблагодарите релизера, оцените раздачу и оставьте свои комментарий, если Вы скачали Готэм через торрент бесплатно! Внесите свою лепту в развитие PiratBit!
      Комментировать посты могут только пользователи прошедшие не сложную регистрацию
      Показать сообщения:    

      Готэм через торрент
      Скачать бесплатно Готэм
      Готэм скачать торрент
      Готэм смотреть онлайн
      Cкачать фильм Готэм бесплатно
      Готэм скачать торрент в хорошем качестве
      Готэм смотреть онлайн бесплатно в хорошем качестве


      Вы не можете начинать темы
      Вы не можете отвечать на сообщения
      Вы не можете редактировать свои сообщения
      Вы не можете удалять свои сообщения
      Вы не можете голосовать в опросах
      Вы не можете прикреплять файлы к сообщениям
      Вы можете скачивать файлы