Ссылка на приватное зеркало нашего сайта всего за 1$. Внимание количество ограничено!!!

2 сезон

iTunes

1 сезон

1

iTunes

iTunes

iTunes

1 сезон

RePack

30

ИГРА 18+

pack

ВАЖНО

!!Акция!!

Alien_RageХит недели

RePack

MK11
pack

Забери бонус

RePack

jed

!!Акция!!

Alien_Rage

RePack

fifa19

RePack

Assassins Creed: Odyssey

RePack

NEED FOR SPEED™ PAYBACK

4 сезон

9 сезон

Бесстыжие 9 сезон

Все сериалы

все сериалы на PB.wtf

RePack

FAR CRY 5
  

Планета сокровищ / Treasure Planet (Рон Клементс, Джон Маскер) [2002 г., мультфильм, фантастика, мелодрама, приключения, семейный, HDRip-AVC, Dub+MVO] от R.G. PiratFilms pb.wtf

Планета сокровищ через торрент pb.wtf

Размер: 1.88 GB | Добавлен: 5 лет 1 мес. назад | Торрент скачан:114 раз
Скачать  

19-09-2015 04:03 Планета сокровищ Скачать торрент  

Планета сокровищ / Treasure Planet
«They're on the search for gold, but they better watch out for Silver»


Год выпуска: 2002
Страна: США
Жанр: мультфильм, фантастика, мелодрама, приключения, семейный
Продолжительность: 01:35:23
Перевод: Дубляж+Профессиональный многоголосый

Субтитры: Русские
Режиссер: Рон Клементс / Ron Clements, Джон Маскер / John Musker
В ролях:

Роско Ли Браун (Mr. Arrow, озвучка), Кори Бертон (Onus, озвучка), Дэйн А. Дэвис (Morph, озвучка), Джозеф Гордон-Левитт (Jim Hawkins, озвучка), Тони Джей (рассказчик, озвучка), Остин Мэйджерс (Young Jim, озвучка), Патрик МакГуэн (Billy Bones, озвучка), Майкл МакШейн (Hands, озвучка), Лори Меткаф (Sarah Hawkins, озвучка), Брайан Мюррей (John Silver, озвучка), Дэвид Хайд Пирс (Doctor Doppler, озвучка), Мартин Шорт (B.E.N., озвучка)
Описание:
16-летний Джим Хоукинс отправляется на поиски таинственной Планеты Сокровищ в компании настоящих космических пиратов. Под руководством корабельного кока, киборга Джона Сильвера, он становится умелым «космоплавателем» и не раз спасает космический галеон от самых серьезных опасностей: черных дыр, взрывов сверхновых и космических штормов.
Но главное испытание поджидает юного героя впереди - предательство близкого друга, который вместе с командой матросов пытается обманом захватить все сокровища и скрыться...
Мировая премьера: 5 ноября 2002
Релиз by Bexram
    Качество: HDRip-AVC (исх. BDRip 1080р)
    Формат: MKV
    Видео кодек: AVC
    Аудио кодек:AC3
    Видео: AVC, 1024x608 (1.684), 1927 kbps, 23,976 fps, 0,129 bpp
    Аудио №1 (Дубляж): русский / AC3 / 5.1 / 48 kHz / 448 kbps / 16 bit ||
    Аудио №2 (MVO): русский / AC3 / 5.1 / 48 kHz / 448 kbps / 16 bit ||


Код:

General
---[Information] [19.09.2015 4:58:01] x264 [info]: frame I:1124  Avg QP:11.94  size: 85164  PSNR Mean Y:50.70 U:53.25 V:52.78 Avg:51.32 Global:50.83
---[Information] [19.09.2015 4:58:01] x264 [info]: frame P:35678 Avg QP:15.89  size: 19070  PSNR Mean Y:47.82 U:51.07 V:50.33 Avg:48.55 Global:47.94
---[Information] [19.09.2015 4:58:01] x264 [info]: frame B:100433 Avg QP:19.33  size:  5997  PSNR Mean Y:47.34 U:51.08 V:50.37 Avg:48.15 Global:47.35

Unique ID                                : 177987343888263718198436330155222020170 (0x85E71D937B345E75B99FF1BFA5E4B04A)
Complete name                            : C:\Установочники игр\Планета сокровищ\Планета сокровищ.HDRip-AVC.by Bexram.MVO+Sub.mkv
Format                                   : Matroska
Format version                           : Version 4 / Version 2
File size                                : 1.88 GiB
Duration                                 : 1h 35mn
Overall bit rate                         : 2 825 Kbps
Movie name                               : Планета сокровищ.HDRip-AVC.by Bexram.MVO+Sub
Encoded date                             : UTC 2015-09-19 02:45:58
Writing application                      : mkvmerge v6.8.0 ('Theme for Great Cities') 64bit built on Mar  2 2014 21:34:26
Writing library                          : libebml v1.3.0 + libmatroska v1.4.1

Video
ID                                       : 4
Format                                   : AVC
Format/Info                              : Advanced Video Codec
Format profile                           : High@L4.1
Format settings, CABAC                   : Yes
Format settings, ReFrames                : 12 frames
Codec ID                                 : V_MPEG4/ISO/AVC
Duration                                 : 1h 35mn
Bit rate                                 : 1 927 Kbps
Width                                    : 1 024 pixels
Height                                   : 608 pixels
Display aspect ratio                     : 1.684
Frame rate                               : 23.976 fps
Color space                              : YUV
Chroma subsampling                       : 4:2:0
Bit depth                                : 8 bits
Scan type                                : Progressive
Bits/(Pixel*Frame)                       : 0.129
Stream size                              : 1.25 GiB (66%)
Writing library                          : x264 core 142 r2431 ac76440
Encoding settings                        : cabac=1 / ref=12 / deblock=1:-3:-3 / analyse=0x3:0x113 / me=umh / subme=9 / psy=1 / psy_rd=1.00:0.00 / mixed_ref=1 / me_range=32 / chroma_me=1 / trellis=1 / 8x8dct=1 / cqm=0 / deadzone=21,11 / fast_pskip=1 / chroma_qp_offset=-2 / threads=6 / lookahead_threads=1 / sliced_threads=0 / nr=0 / decimate=1 / interlaced=0 / bluray_compat=0 / constrained_intra=0 / bframes=10 / b_pyramid=2 / b_adapt=2 / b_bias=10 / direct=1 / weightb=0 / open_gop=0 / weightp=2 / keyint=240 / keyint_min=23 / scenecut=40 / intra_refresh=0 / rc_lookahead=40 / rc=2pass / mbtree=1 / bitrate=1927 / ratetol=1.0 / qcomp=0.65 / qpmin=0 / qpmax=69 / qpstep=4 / cplxblur=20.0 / qblur=0.5 / ip_ratio=1.40 / aq=1:1.00
Language                                 : English
Default                                  : Yes
Forced                                   : No

Audio #1
ID                                       : 1
Format                                   : AC-3
Format/Info                              : Audio Coding 3
Mode extension                           : CM (complete main)
Codec ID                                 : A_AC3
Duration                                 : 1h 35mn
Bit rate mode                            : Constant
Bit rate                                 : 448 Kbps
Channel(s)                               : 6 channels
Channel positions                        : Front: L C R, Side: L R, LFE
Sampling rate                            : 48.0 KHz
Bit depth                                : 16 bits
Compression mode                         : Lossy
Stream size                              : 306 MiB (16%)
Title                                    : Дубляж
Language                                 : Russian
Default                                  : Yes
Forced                                   : No

Audio #2
ID                                       : 2
Format                                   : AC-3
Format/Info                              : Audio Coding 3
Mode extension                           : CM (complete main)
Codec ID                                 : A_AC3
Duration                                 : 1h 35mn
Bit rate mode                            : Constant
Bit rate                                 : 448 Kbps
Channel(s)                               : 6 channels
Channel positions                        : Front: L C R, Side: L R, LFE
Sampling rate                            : 48.0 KHz
Bit depth                                : 16 bits
Compression mode                         : Lossy
Stream size                              : 306 MiB (16%)
Title                                    : Многоголосый закадровый
Language                                 : Russian
Default                                  : No
Forced                                   : No

Text
ID                                       : 3
Format                                   : UTF-8
Codec ID                                 : S_TEXT/UTF8
Codec ID/Info                            : UTF-8 Plain Text
Title                                    : Русские сабы
Language                                 : Russian
Default                                  : No
Forced                                   : No


Скриншоты:



pb.wtf



Скачать Планета сокровищ через торрент http://i65.fastpic.ru/big/2015/0919/69/3ffb4587f2e6a86c7a18de849cba1269.png Скачать фильм Планета сокровищ через торрент бесплантно в хорошем качестве Описание: 16-летний Джим Хоукинс отправляется на поиски таинственной Планеты Сокровищ в компании настоящих космических пиратов. Под ... 10 10 11
Info! Золотая раздача, скачанное не засчитывается.
Торрент: Зарегистрирован [2015-09-19 04:03] · скачан: 114 раз
Статус: √ проверено
Размер: 1.88 GB
Как cкачать? Как скачать Планета сокровищ через торрент | qTorrent

28-11-2019 20:33  

Отключить всю рекламу на сайте

    Дорогой пользователь! Огромная просьба, поблагодарите релизера, оцените раздачу и оставьте свои комментарий, если Вы скачали Планета сокровищ через торрент бесплатно! Внесите свою лепту в развитие PiratBit!
    Комментировать посты могут только пользователи прошедшие не сложную регистрацию
    Показать сообщения:    

    Планета сокровищ через торрент
    Скачать бесплатно Планета сокровищ
    Планета сокровищ скачать торрент
    Планета сокровищ смотреть онлайн
    Cкачать фильм Планета сокровищ бесплатно
    Планета сокровищ скачать торрент в хорошем качестве
    Планета сокровищ смотреть онлайн бесплатно в хорошем качестве


    Вы не можете начинать темы
    Вы не можете отвечать на сообщения
    Вы не можете редактировать свои сообщения
    Вы не можете удалять свои сообщения
    Вы не можете голосовать в опросах
    Вы не можете прикреплять файлы к сообщениям
    Вы можете скачивать файлы