2 сезон

iTunes

1 сезон

1

iTunes

iTunes

iTunes

1 сезон

RePack

30

ИГРА 18+

pack

ВАЖНО

!!Акция!!

Alien_RageХит недели

RePack

MK11
pack

Забери бонус

RePack

jed

!!Акция!!

Alien_Rage

RePack

fifa19

RePack

Assassins Creed: Odyssey

RePack

NEED FOR SPEED™ PAYBACK

4 сезон

9 сезон

Бесстыжие 9 сезон

Все сериалы

все сериалы на PB.wtf

RePack

FAR CRY 5
  

Гангстер №1 / Gangster No.1 (Пол МакГиган) [2000, триллер, драма, криминал, BDRip 720p by msltel] DVO, 2 x AVO pb.wtf

Гангстер №1 через торрент pb.wtf

Размер: 5.05 GB | Добавлен: 5 лет 1 мес. назад | Торрент скачан:174 раза
Скачать  

19-09-2015 07:22 Гангстер №1 Скачать торрент  

Название: Гангстер №1
Оригинальное название: Gangster No.1
Год выпуска: 2000
Страна: Великобритания, Германия, Ирландия
Жанр: триллер, драма, криминал
Продолжительность: 01:42:45
Перевод: профессиональный двухголосый, авторский

Режиссёр: Пол МакГиган

В ролях: Малкольм МакДауэлл, Дэвид Тьюлис, Пол Беттани, Саффрон Берроуз, Эдди Марсан, Эндрю Линкольн, Кеннет Крэнэм, Джейми Формен, Даг Аллен, Разаак Адоти, Каван Клеркин, Дэвид Кеннеди, Джонни Харрис, Энтон Саундерс, Алекс МакСуини

Описание: Жестокий английский бандит по прозвищу «Гангстер 55» всегда мечтал о том, чтобы быть номером первым в преступном мире. Он ещё юнцом начал свою криминальную карьеру, войдя в доверие к известному гангстеру Фредди Мэйсу и став его другом. Ненадолго. Настоящий психопат, Гангстер 55, не колеблясь, разжигает потушенный было пожар войны между бандами. В результате этого Фредди садится на 30 лет в тюрьму, а герой занимает его место. Кровавое восхождение «Гангстера 55» к вершинам криминальной власти начинается...



Качество: BDRip 720p Сравнение с исходником
Формат: MKV
Видео: MPEG-4 AVC, 5103 Кбит/с, 1274x720, 29.970 кадр/с
Аудио 1: русский, AC3, 448 kbps, 6 ch, 48 kHz [профессиональный двухголосый, R5]
Аудио 2: русский, AC3, 448 kbps, 6 ch, 48 kHz [авторский, Юрий Немахов]
Аудио 3: русский, AC3, 448 kbps, 6 ch, 48 kHz [авторский, Михаил Яроцкий (Киберпанк)]
Аудио 4: английский, AC3, 448 kbps, 6 ch, 48 kHz [оригинал]
Субтитры 1: русские (форсированнные)
Субтитры 1: русские
Субтитры 2: английские (для слабослышащих)
Европейская киноакадемия, 2000 год
Номинации (1):
Европейское открытие года (Пол МакГиган)
Общее
Уникальный идентификатор : 247117037420363783892379654411544292300 (0xB9E9029D5C01FA05A1A657995851EBCC)
Полное имя : D:VideoГангстер No.1.2000.BDRip.720p.mkv
Формат : Matroska
Версия формата : Version 4 / Version 2
Размер файла : 5,05 Гбайт
Продолжительность : 1 ч. 42 м.
Общий поток : 7035 Кбит/сек
Название фильма : BDRip -- STarankov
Дата кодирования : UTC 2015-09-19 01:52:26
Программа кодирования : mkvmerge v8.2.0 ('World of Adventure') 64bit
Библиотека кодирования : libebml v1.3.1 + libmatroska v1.4.2
DURATION : 01:40:10.871000000
NUMBER_OF_FRAMES : 1358
NUMBER_OF_BYTES : 41348
_STATISTICS_WRITING_APP : mkvmerge v8.2.0 ('World of Adventure') 64bit
_STATISTICS_WRITING_DATE_UTC : 2015-09-19 01:52:26
_STATISTICS_TAGS : BPS DURATION NUMBER_OF_FRAMES NUMBER_OF_BYTES

Видео
Идентификатор : 1
Формат : AVC
Формат/Информация : Advanced Video Codec
Профиль формата : High@L4.1
Параметр CABAC формата : Да
Параметр ReFrames формата : 9 кадров
Идентификатор кодека : V_MPEG4/ISO/AVC
Продолжительность : 1 ч. 42 м.
Битрейт : 5103 Кбит/сек
Ширина : 1274 пикселя
Высота : 720 пикселей
Соотношение сторон : 16:9
Режим частоты кадров : Постоянный
Частота кадров : 29,970 кадров/сек
Цветовое пространство : YUV
Субдискретизация насыщенности : 4:2:0
Битовая глубина : 8 бит
Тип развёртки : Прогрессивная
Бит/(Пиксели*Кадры) : 0.186
Размер потока : 3,66 Гбайт (73%)
Библиотека кодирования : x264 core 146 r2538 121396c
Настройки программы : cabac=1 / ref=9 / deblock=1:-2:-2 / analyse=0x3:0x113 / me=umh / subme=10 / psy=1 / psy_rd=1.00:0.15 / mixed_ref=1 / me_range=32 / chroma_me=1 / trellis=2 / 8x8dct=1 / cqm=0 / deadzone=21,11 / fast_pskip=1 / chroma_qp_offset=-3 / threads=6 / lookahead_threads=1 / sliced_threads=0 / nr=0 / decimate=1 / interlaced=0 / bluray_compat=0 / constrained_intra=0 / bframes=11 / b_pyramid=2 / b_adapt=2 / b_bias=0 / direct=1 / weightb=1 / open_gop=0 / weightp=2 / keyint=288 / keyint_min=28 / scenecut=40 / intra_refresh=0 / rc_lookahead=40 / rc=crf / mbtree=0 / crf=20.2 / qcomp=0.60 / qpmin=0 / qpmax=69 / qpstep=4 / vbv_maxrate=40000 / vbv_bufsize=50000 / crf_max=0.0 / nal_hrd=none / filler=0 / ip_ratio=1.40 / pb_ratio=1.30 / aq=1:1.00
Язык : English
Default : Да
Forced : Нет
DURATION : 01:42:45.459000000
NUMBER_OF_FRAMES : 184779
NUMBER_OF_BYTES : 4037893113
_STATISTICS_WRITING_APP : mkvmerge v8.2.0 ('World of Adventure') 64bit
_STATISTICS_WRITING_DATE_UTC : 2015-09-19 01:52:26
_STATISTICS_TAGS : BPS DURATION NUMBER_OF_FRAMES NUMBER_OF_BYTES

Аудио #1
Идентификатор : 2
Формат : AC-3
Формат/Информация : Audio Coding 3
Расширение режима : CM (complete main)
Параметр Endianness формата : Big
Идентификатор кодека : A_AC3
Продолжительность : 1 ч. 42 м.
Вид битрейта : Постоянный
Битрейт : 448 Кбит/сек
Каналы : 6 каналов
Расположение каналов : Front: L C R, Side: L R, LFE
Частота : 48,0 КГц
Метод сжатия : С потерями
Размер потока : 329 Мбайт (6%)
Заголовок : DVO (R5)
Язык : Russian
Default : Да
Forced : Нет

Аудио #2
Идентификатор : 3
Формат : AC-3
Формат/Информация : Audio Coding 3
Расширение режима : CM (complete main)
Параметр Endianness формата : Big
Идентификатор кодека : A_AC3
Продолжительность : 1 ч. 42 м.
Вид битрейта : Постоянный
Битрейт : 448 Кбит/сек
Каналы : 6 каналов
Расположение каналов : Front: L C R, Side: L R, LFE
Частота : 48,0 КГц
Метод сжатия : С потерями
Размер потока : 329 Мбайт (6%)
Заголовок : AVO (Юрий Немахов)
Язык : Russian
Default : Нет
Forced : Нет

Аудио #3
Идентификатор : 4
Формат : AC-3
Формат/Информация : Audio Coding 3
Расширение режима : CM (complete main)
Параметр Endianness формата : Big
Идентификатор кодека : A_AC3
Продолжительность : 1 ч. 42 м.
Вид битрейта : Постоянный
Битрейт : 448 Кбит/сек
Каналы : 6 каналов
Расположение каналов : Front: L C R, Side: L R, LFE
Частота : 48,0 КГц
Метод сжатия : С потерями
Размер потока : 329 Мбайт (6%)
Заголовок : AVO (Михаил Яроцкий (Киберпанк))
Язык : Russian
Default : Нет
Forced : Нет

Аудио #4
Идентификатор : 5
Формат : AC-3
Формат/Информация : Audio Coding 3
Расширение режима : CM (complete main)
Параметр Endianness формата : Big
Идентификатор кодека : A_AC3
Продолжительность : 1 ч. 42 м.
Вид битрейта : Постоянный
Битрейт : 448 Кбит/сек
Каналы : 6 каналов
Расположение каналов : Front: L C R, Side: L R, LFE
Частота : 48,0 КГц
Метод сжатия : С потерями
Размер потока : 329 Мбайт (6%)
Заголовок : Original
Язык : English
Default : Нет
Forced : Нет

Текст #1
Идентификатор : 6
Формат : UTF-8
Идентификатор кодека : S_TEXT/UTF8
Идентификатор кодека/Информация : UTF-8 Plain Text
Заголовок : русский (форсированные)
Язык : Russian
Default : Да
Forced : Да

Текст #2
Идентификатор : 7
Формат : UTF-8
Идентификатор кодека : S_TEXT/UTF8
Идентификатор кодека/Информация : UTF-8 Plain Text
Заголовок : русский
Язык : Russian
Default : Нет
Forced : Нет

Текст #3
Идентификатор : 8
Формат : UTF-8
Идентификатор кодека : S_TEXT/UTF8
Идентификатор кодека/Информация : UTF-8 Plain Text
Заголовок : английский (для слабослышащих)
Default : Нет
Forced : Нет
pb.wtf



Скачать Гангстер №1 через торрент http://i68.fastpic.ru/big/2015/0918/13/26177a8c45b53102f2833d623c2f1b13.jpg Скачать фильм Гангстер №1 через торрент бесплантно в хорошем качестве Описание: Жестокий английский бандит по прозвищу «Гангстер 55» всегда мечтал о том, чтобы быть номером первым в преступном мире. Он ещё ... 9.9 10 10
Info! Золотая раздача, скачанное не засчитывается.
Торрент: Зарегистрирован [2015-09-19 07:22] · скачан: 174 раз
Статус: √ проверено
Размер: 5.05 GB
Как cкачать? Как скачать Гангстер №1 через торрент | qTorrent

% Раздел Тема Автор DL S | L
Фильмы [HD 720p, 1080p] (Хороший звук DUB, MVO) [ 15.44 GB ] Гангстер №1 / Gangster No.1 [2000 BDRip 1080p by msltel] DVO 2 x AVO msltel Скачать
1 | 0
Фильмы до 2000 г. [ 3.4 GB ] Гангстер №1 / Gangster No.1 [2000 BDRip AVC by msltel] DVO 2 x AVO msltel Скачать
1 | 0

28-11-2019 20:33  

Отключить всю рекламу на сайте

20-09-2015 07:26 Гангстер №1 Скачать торрент  

всегда думаю как я пропускаю такие шедевры посмотретьpb.wtf



17-06-2017 16:08 Гангстер №1 Скачать торрент  

ахуенный фильм! особенно в звуке русский, AC3, 448 kbps, 6 ch, 48 kHz [авторский, Михаил Яроцкий (Киберпанк)]pb.wtf



18-06-2017 10:14 Гангстер №1 Скачать торрент  

убедили. качаюpb.wtf



    Дорогой пользователь! Огромная просьба, поблагодарите релизера, оцените раздачу и оставьте свои комментарий, если Вы скачали Гангстер №1 через торрент бесплатно! Внесите свою лепту в развитие PiratBit!
    Комментировать посты могут только пользователи прошедшие не сложную регистрацию
    Показать сообщения:    

    Гангстер №1 через торрент
    Скачать бесплатно Гангстер №1
    Гангстер №1 скачать торрент
    Гангстер №1 смотреть онлайн
    Cкачать фильм Гангстер №1 бесплатно
    Гангстер №1 скачать торрент в хорошем качестве
    Гангстер №1 смотреть онлайн бесплатно в хорошем качестве


    Вы не можете начинать темы
    Вы не можете отвечать на сообщения
    Вы не можете редактировать свои сообщения
    Вы не можете удалять свои сообщения
    Вы не можете голосовать в опросах
    Вы не можете прикреплять файлы к сообщениям
    Вы можете скачивать файлы