Достать ножи: Стеклянная луковица

MVO

Добыча

Дубляж

Уэнсдэй

1 сезон

Тор

Дубляж

13 клиническая

1 сезон

Жестокая ночь

MVO

Одни из нас

1 сезон

Deluxe

pack

Рекомендуем

30

Пиратка

ВАЖНО

ВАЖНО

Ghostwire

Пиратка

jed

RePack

nioh2

RePack

RDR2

RePack

NEED FOR SPEED™ PAYBACK

RePack

скачать торрент

Кинопоиск HD

Острые козырьки 6 сезон

6 сезон

FAR CRY 6

RePack

скачать торрент

Лицензия

скачать торрент

MVO

1

1 сезон

скачать торрент

1 сезон

скачать торрент

Лицензия

  

Жуковский (Всеволод Пудовкин, Дмитрий Васильев) [1950, СССР, драма, биография, SATRip от AVP Studio]

Жуковский через торрент pb.wtf

Размер: 1.09 GB | Добавлен: 7 лет 4 мес. назад | Торрент скачан:5 раз
Смотреть онлайн | Скачать | Поддержите нас   

19-09-2015 12:56 Жуковский Скачать торрент  

Жуковский
Страна: СССР
Производство: Мосфильм

Жанр: драма, биография
Год выпуска: 1950
Продолжительность: 01:23:39

Перевод: Не требуется
Cубтитры: нет
Оригинальная аудиодорожка: русский

Режиссер: Всеволод Пудовкин, Дмитрий Васильев

В ролях:
Юрий Юровский, Илья Судаков, Владимир Белокуров, Владимир Дружников, Софья Гиацинтова, Галина Фролова, Олег (Осип) Фрелих, Александр Хохлов, Владимир Грибков, Борис Битюков, Анатолий Чемодуров, Андрей Пунтус, Г. Смирнов, Георгий Юматов, Михаил Названов, Всеволод Аксёнов...
Полный список актёров

Описание:
По материалам Н.Е.Жуковского.
Посвящен выдающемуся русскому ученому-авиатору Н.Е.Жуковскому (1847—1921), основоположнику современной аэродинамики, член-корреспонденту Петербургской Академии наук, с 1918 — организатору и первому руководителю ЦАГИ (город Жуковский).

Источник: DVB
Качество видео: SATRip
Формат видео: AVI

Видео: 672x512 (4:3), 25 fps, XviD ~ 1664 kbps avg, 0.193 bit/pixel
Аудио: 48 kHz, Dolby Digital AC3 2.0, 192 kbps

Раздача от:
Общее
Полное имя : Zhukovskiy.1950.SATRip_[New-team]_by_AVP_Studio.avi
Формат : AVI
Формат/Информация : Audio Video Interleave
Размер файла : 1,09 Гбайт
Продолжительность : 1 ч. 23 м.
Общий поток : 1866 Кбит/сек
Программа кодирования : VirtualDubMod 1.5.10.3 | www.virtualdub-fr.org || (build 2550/release)
Библиотека кодирования : VirtualDubMod build 2550/release

Видео
Идентификатор : 0
Формат : MPEG-4 Visual
Профиль формата : Advanced [email protected]
Параметр BVOP формата : 1
Параметр QPel формата : Нет
Параметр GMC формата : Без точки перехода
Параметр матрицы формата : Выборочная
Идентификатор кодека : XVID
Идентификатор кодека/Подсказка : XviD
Продолжительность : 1 ч. 23 м.
Битрейт : 1664 Кбит/сек
Ширина : 672 пикселя
Высота : 512 пикселей
Соотношение сторон : 4:3
Частота кадров : 25,000 кадров/сек
Цветовое пространство : YUV
Субдискретизация насыщенности : 4:2:0
Битовая глубина : 8 бит
Тип развёртки : Прогрессивная
Метод сжатия : С потерями
Бит/(Пиксели*Кадры) : 0.193
Размер потока : 996 Мбайт (89%)
Библиотека кодирования : XviD 73

Аудио
Идентификатор : 1
Формат : MPEG Audio
Версия формата : Version 1
Профиль формата : Layer 2
Идентификатор кодека : 50
Продолжительность : 1 ч. 23 м.
Вид битрейта : Постоянный
Битрейт : 192 Кбит/сек
Каналы : 2 канала
Частота : 48,0 КГц
Метод сжатия : С потерями
Размер потока : 115 Мбайт (10%)
Выравнивание : Соединение по промежуткам
Продолжительность промежутка : 40 мс. (1,00 видеокадр)
Время предзагрузки промежутка : 504 мс



Скачать Жуковский через торрент http://s017.radikal.ru/i409/1509/9f/4cb940a7fbf4.png Скачать, смотреть онлайн Жуковский бесплантно в хорошем качестве Описание:По материалам Н.Е.Жуковского.Посвящен выдающемуся русскому ученому-авиатору Н.Е.Жуковскому (1847—1921), основоположнику ... 5 10 1
Торрент: Зарегистрирован [2015-09-19 12:56] · скачан: 5 раз
Статус: √ проверено
Размер: 1.09 GB
Как cкачать? Как скачать Жуковский через торрент | UTorrent

% Раздел Тема Автор DL S | L
Кино СССР [ 1.09 GB ] Жуковский | | SATRip-AVC от AVP Studio AVP Studio Скачать
1 | 0
Кино СССР [ 745 MB ] Жуковский | | SATRip от AVP Studio AVP Studio Скачать
1 | 0

28-11-2019 20:33  


Отключить вcю реклaмy на сайте, в т.ч. и в плеере онлайн просмотра!

    Дорогой пользователь! Огромная просьба, поблагодарите релизера, оцените раздачу и оставьте свои комментарий, если Вы скачали Жуковский через торрент бесплатно!!
    Комментировать посты могут только пользователи прошедшие не сложную регистрацию
    Показать сообщения:    


    Жуковский через торрент
    Скачать бесплатно Жуковский
    Жуковский скачать торрент
    Жуковский смотреть онлайн
    Cкачать фильм Жуковский бесплатно
    Жуковский скачать торрент в хорошем качестве
    Жуковский смотреть онлайн бесплатно в хорошем качестве
    Вы не можете начинать темы
    Вы не можете отвечать на сообщения
    Вы не можете редактировать свои сообщения
    Вы не можете удалять свои сообщения
    Вы не можете голосовать в опросах
    Вы не можете прикреплять файлы к сообщениям
    Вы можете скачивать файлы
    Жуковский [1950, СССР, драма, биография, SATRip от AVP Studio] смотреть онлайн, скачать торрент picoco.icu