новый адрес
Ссылка на приватное зеркало всего за 1$. Внимание количество ограничено!!!

iTunes

1+1

iTunes

мы

iTunes

1

iTunes

Чернобыль

iTunes

Ральф против интернета

Лицензия

ПШазам

Лицензия

Оно 2

Лицензия

30
pack

Вам бонус

ВАЖНО

!!Акция!!

Alien_RageХит недели

RePack

Resident Evil 21

ИГРА 18+

pack

RePack

jed

!!Акция!!

Alien_Rage

RePack

fifa19

RePack

Assassins Creed: Odyssey

RePack

NEED FOR SPEED™ PAYBACK

3 сезон

9 сезон

Бесстыжие 9 сезон

Все сериалы

все сериалы на PB.wtf

RePack

FAR CRY 5
Ребята, катастрофически не хватает 1900р. для оплаты серверов за Октябрь (всвязи с блокировками трафик упал в 3 раза), 1-2р., выручайте.
  

Жуковский (Всеволод Пудовкин, Дмитрий Васильев) [1950, СССР, драма, биография, SATRip от AVP Studio] pb.wtf

Жуковский через торрент pb.wtf

Размер: 745 MB | Добавлен: 4 года 2 мес. назад | Торрент скачан:5 раз
Скачать  

19-09-2015 12:57 Жуковский Скачать торрент  

Жуковский
Страна: СССР
Производство: Мосфильм

Жанр: драма, биография
Год выпуска: 1950
Продолжительность: 01:23:39

Перевод: Не требуется
Cубтитры: нет
Оригинальная аудиодорожка: русский

Режиссер: Всеволод Пудовкин, Дмитрий Васильев

В ролях:
Юрий Юровский, Илья Судаков, Владимир Белокуров, Владимир Дружников, Софья Гиацинтова, Галина Фролова, Олег (Осип) Фрелих, Александр Хохлов, Владимир Грибков, Борис Битюков, Анатолий Чемодуров, Андрей Пунтус, Г. Смирнов, Георгий Юматов, Михаил Названов, Всеволод Аксёнов...
Полный список актёров

Описание:
По материалам Н.Е.Жуковского.
Посвящен выдающемуся русскому ученому-авиатору Н.Е.Жуковскому (1847—1921), основоположнику современной аэродинамики, член-корреспонденту Петербургской Академии наук, с 1918 — организатору и первому руководителю ЦАГИ (город Жуковский).

Источник: DVB
Качество видео: SATRip
Формат видео: AVI

Видео: 640x480 (4:3), 25 fps, XviD ~ 1108 kbps avg, 0.144 bit/pixel
Аудио: 48 kHz, MP3 2.0, 128 kbps

Раздача от:
Общее
Полное имя : Zhukovskiy.1950.SATRip-745_[New-team]_by_AVP_Studio.avi
Формат : AVI
Формат/Информация : Audio Video Interleave
Размер файла : 745 Мбайт
Продолжительность : 1 ч. 23 м.
Общий поток : 1246 Кбит/сек
Программа кодирования : VirtualDubMod 1.5.10.3 | www.virtualdub-fr.org || (build 2550/release)
Библиотека кодирования : VirtualDubMod build 2550/release

Видео
Идентификатор : 0
Формат : MPEG-4 Visual
Профиль формата : Advanced Simple@L5
Параметр BVOP формата : 1
Параметр QPel формата : Нет
Параметр GMC формата : Без точки перехода
Параметр матрицы формата : Выборочная
Идентификатор кодека : XVID
Идентификатор кодека/Подсказка : XviD
Продолжительность : 1 ч. 23 м.
Битрейт : 1108 Кбит/сек
Ширина : 640 пикселей
Высота : 480 пикселей
Соотношение сторон : 4:3
Частота кадров : 25,000 кадров/сек
Цветовое пространство : YUV
Субдискретизация насыщенности : 4:2:0
Битовая глубина : 8 бит
Тип развёртки : Прогрессивная
Метод сжатия : С потерями
Бит/(Пиксели*Кадры) : 0.144
Размер потока : 663 Мбайт (89%)
Библиотека кодирования : XviD 73

Аудио
Идентификатор : 1
Формат : MPEG Audio
Версия формата : Version 1
Профиль формата : Layer 3
Идентификатор кодека : 55
Идентификатор кодека/Подсказка : MP3
Продолжительность : 1 ч. 23 м.
Вид битрейта : Постоянный
Битрейт : 128 Кбит/сек
Каналы : 2 канала
Частота : 48,0 КГц
Метод сжатия : С потерями
Размер потока : 76,6 Мбайт (10%)
Выравнивание : Соединение по промежуткам
Продолжительность промежутка : 40 мс. (1,00 видеокадр)
Время предзагрузки промежутка : 504 мс.
Библиотека кодирования : LAME3.99r
Настройки программы : -m s -V 4 -q 2 -lowpass 17 -b 128
pb.wtf



Скачать Жуковский через торрент http://s017.radikal.ru/i409/1509/9f/4cb940a7fbf4.png Скачать фильм Жуковский через торрент бесплантно в хорошем качестве Описание:По материалам Н.Е.Жуковского.Посвящен выдающемуся русскому ученому-авиатору Н.Е.Жуковскому (1847—1921), основоположнику ... 5 10 1
Торрент: Зарегистрирован [2015-09-19 12:57] · скачан: 5 раз
Статус: √ проверено
Размер: 745 MB
Как cкачать? Как скачать Жуковский через торрент | qTorrent

% Раздел Тема Автор DL S | L
Кино СССР [ 1.09 GB ] Жуковский [1950 СССР биография SATRip-AVC от AVP Studio] AVP Studio Скачать
1 | 0
Кино СССР [ 1.09 GB ] Жуковский [1950 СССР биография SATRip от AVP Studio] AVP Studio Скачать
1 | 0
Наши сериалы [ 4.69 GB ] Адвокат-5. Полный сборник. [2008 SATRip] Ragazzo Скачать
1 | 0


>> Переходим по ссылке <<
Автоматически подгузится скрипт который настроит ваш браузер на выигрыш!!
После настройки браузера вероятность выигрыша увеличется в 4.1-4,6 раза.
В течение 6 секунд вам откроется настроенный интерфейс казино, с повышенной вероятностью выигрыша.






Отзывы и комментарии о схеме читаем и пишем здесь: ---> Отзывы и комментарии о схеме

Новые благодарочки в телеграм довольных пользователей:
скриншот   скриншот   скриншот   скриншот   скриншот
    Дорогой пользователь! Огромная просьба, поблагодарите релизера, оцените раздачу и оставьте свои комментарий, если Вы скачали Жуковский через торрент бесплатно! Внесите свою лепту в развитие PiratBit!
    Комментировать посты могут только пользователи прошедшие не сложную регистрацию
    Показать сообщения:    

    Жуковский через торрент
    Скачать бесплатно Жуковский
    Жуковский скачать торрент
    Жуковский смотреть онлайн
    Cкачать фильм Жуковский бесплатно
    Жуковский скачать торрент в хорошем качестве
    Жуковский смотреть онлайн бесплатно в хорошем качестве


    Вы не можете начинать темы
    Вы не можете отвечать на сообщения
    Вы не можете редактировать свои сообщения
    Вы не можете удалять свои сообщения
    Вы не можете голосовать в опросах
    Вы не можете прикреплять файлы к сообщениям
    Вы можете скачивать файлы