Ссылка на приватное зеркало нашего сайта всего за 1$. Внимание количество ограничено!!!

2 сезон

iTunes

1 сезон

1

iTunes

iTunes

iTunes

1 сезон

RePack

30

ИГРА 18+

pack

ВАЖНО

!!Акция!!

Alien_RageХит недели

RePack

MK11
pack

Забери бонус

RePack

jed

!!Акция!!

Alien_Rage

RePack

fifa19

RePack

Assassins Creed: Odyssey

RePack

NEED FOR SPEED™ PAYBACK

4 сезон

9 сезон

Бесстыжие 9 сезон

Все сериалы

все сериалы на PB.wtf

RePack

FAR CRY 5
  

МЫ. Верим в любовь / W.E. (Мадонна / Madonna) [2011, Великобритания, драма, мелодрама, история, BDRip 1080p от _denis_100 / NNNB] MVO pb.wtf

МЫ. Верим в любовь через торрент pb.wtf

Размер: 7.75 GB | Добавлен: 5 лет 1 мес. назад | Торрент скачан:52 раза
Скачать  

19-09-2015 14:08 МЫ. Верим в любовь Скачать торрент  

МЫ. Верим в любовь / W.E.
«Самая красивая история XX века»


Год выпуска: 2011
Страна: Великобритания
Жанр: драма, мелодрама, история
Продолжительность: 01:58:45
Перевод: Профессиональный многоголосый [Лицензия]

Режиссер: Мадонна
В ролях: Эбби Корниш , Андреа Райзборо , Джеймс Д’Арси , Оскар Айзек , Ричард Койл , Дэвид Харбор , Джеймс Фокс , Джуди Парфитт , Халук Бильгинер , Джеффри Палмер , Натали Дормер , Лоуренс Фокс
Описание:

Роман короля Великобритании Эдуарда VIII и американки Уоллис Симпсон взбудоражил общественность. На момент знакомства с принцем Эдуардом Симпсон была замужем, а король, если хотел жениться на ней, должен был отречься от престола. Но даже это не помешало их любви.

R - Лицам до 17 лет обязательно присутствие взрослого
Качество: BDRip 1080p
Контейнер (Расширение): MKV
Видео: 1920x800, 8320 Кбит/сек, 23,976 кадр/сек, 0,226 Бит/[Пиксели*Кадры]
Аудио №1: русский / AC3 / 5.1 / 48 kHz / 384 kbps / 16 bit |Профессиональный многоголосый [Лицензия]|
Аудио №2: английский / AC3 / 5.1 / 48 kHz / 640 kbps / 16 bit
Навигация по главам(Чаптеры): естьАвтор рипа: Сообщество:
  • Главной кандидатурой на роль Уолли Симпсон долгое время была Вера Фармига. Актриса выбыла из проекта по причине беременности, и её заменила Андреа Райзборо.
  • Роль короля Эдуарда VIII первоначальна была предложена Юэну МакГрегору. После того как тот выбыл из проекта, его заменил Джеймс Д’Арси.
  • Сославшись на творческие разногласия с Мадонной, проект на стадии подготовки к съёмкам покинули один из продюсеров Дэвид Парфитт и директор по кастингу Нина Голд.
  • Роль леди Тельмы Фёрнесс первоначально получила Марго Стилли. Актриса выбыла из проекта из-за разногласий с Мадонной.
  • Сыгравшие в фильме отца и сына Георга V и Георга VI (Принц Альберт) Джеймс и Лоренс Фокс также являются отцом и сыном.
  • Художник по костюмам Ариана Филлипс начала свою работу за год до начала съёмок. Гардероб Уолли Симпсон в фильме насчитывал более 80 костюмов, многие из которых были изготовлены самими престижными европейскими домами мод. Помимо полностью новых моделей использовались также сохранившиеся костюмы того периода, а также специально изготовленные по найденным в архивах меркам и образцам. Всего было изготовлено 60 костюмов для Уолли Симпсон и около 30 для Эдварда.
  • Во время съёмок было использовано принадлежащее находящемуся в Шотландии Национальному Музею костюмов свадебное платье работы известного дизайнера Майкла О’Коннора. Руководство музея с большим энтузиазмом отреагировало на запрос создателей фильма. Ранее это же платье было использовано при съёмках телевизионной ленты «Уоллис и Эдуард» (2005). Там его носила Джоэли Ричардсон.
  • Для воссоздания значительной ювелирной коллекции Уолли Симпсон была привлечена знаменитая фирма Картье. Её стараниями были воссозданы десять ювелирных украшений, включая изумрудное обручальное кольцо. Также создатели фильма смогли использовать часть сохранившихся реальных украшений Уолли Симпсон. Они находились в архивах крупной французской ювелирной фирмы Ван Клиф и Арпельс и на съёмочной площадке постоянно сопровождались мощной охраной в лице её секьюрити.
  • Один из изготовленных фирмой Картье браслетов соскочил с руки Андреа Райзборо и был утерян в море. Для него тут же была заказана замена.
  • Во время съёмок были также использованы несколько ювелирных украшений, принадлежащих лично Мадонне. В сцене, когда Уолли опрыскивает духами цветы, её черные и белые жемчужные и бриллиантовые серёжки как раз принадлежали Мадонне.
  • В качестве подготовки к роли Мадонна попросила Джеймса Д’Арси научиться балетным танцам, верховой езде и игре на волынке.
  • Купившая права на фильм в США Weinstein Company продвигала его как режиссёрский дебют Мадонны. Вышедшая в 2008 году кинолента «Грязь и мудрость» несмотря на продолжительность в 81 минуту была отнесена американским прокатчиком к разряду короткометражек.
  • До самого последнего момента Мадонна надеялась, что премьера фильма сможет состояться на Каннском кинофестивале 2011 года. Однако фильм оказался не готов к назначенному сроку. Прибывшим на фестиваль прокатчикам и дистрибьюторам были предложены лишь специально отобранные отрывки из картины.
  • Получившая Золотой Глобус песня из фильма «Masterpiece» не удовлетворяла критериям Американской Киноакадемии и потому не могла быть номинирована на Оскар. Она начинается примерно через минуту после появления первых титров, тогда как согласно правилам крайним моментом является как раз самое начало титров.
  • Код:

    Format                                   : Matroska
    Format version                           : Version 2
    File size                                : 7.75 GiB
    Duration                                 : 1h 58mn
    Overall bit rate                         : 9 342 Kbps
    Movie name                               : MY.Verim v ljubov.(2011).BDRip.1080p.[denis100]
    Encoded date                             : UTC 2015-09-18 13:36:24
    Writing application                      : mkvmerge v5.8.0 ('No Sleep / Pillow') built on Sep  2 2012 15:37:04
    Writing library                          : libebml v1.2.3 + libmatroska v1.3.0

    Video
    ID                                       : 1
    Format                                   : AVC
    Format/Info                              : Advanced Video Codec
    Format profile                           : High@L4.1
    Format settings, CABAC                   : Yes
    Format settings, ReFrames                : 5 frames
    Codec ID                                 : V_MPEG4/ISO/AVC
    Duration                                 : 1h 58mn
    Bit rate                                 : 8 320 Kbps
    Width                                    : 1 920 pixels
    Height                                   : 800 pixels
    Display aspect ratio                     : 2.40:1
    Frame rate                               : 23.976 fps
    Color space                              : YUV
    Chroma subsampling                       : 4:2:0
    Bit depth                                : 8 bits
    Scan type                                : Progressive
    Bits/(Pixel*Frame)                       : 0.226
    Stream size                              : 6.75 GiB (87%)
    Title                                    : MY.Verim v ljubov.(2011).BDRip.1080p.[denis100]
    Writing library                          : x264 core 148 r2597 e86f3a1
    Encoding settings                        : cabac=1 / ref=5 / deblock=1:-3:-3 / analyse=0x3:0x133 / me=umh / subme=11 / psy=1 / psy_rd=1.00:0.10 / mixed_ref=1 / me_range=48 / chroma_me=1 / trellis=2 / 8x8dct=1 / cqm=0 / deadzone=21,11 / fast_pskip=0 / chroma_qp_offset=-3 / threads=6 / lookahead_threads=1 / sliced_threads=0 / nr=0 / decimate=1 / interlaced=0 / bluray_compat=0 / constrained_intra=0 / bframes=10 / b_pyramid=2 / b_adapt=2 / b_bias=0 / direct=1 / weightb=1 / open_gop=0 / weightp=2 / keyint=240 / keyint_min=23 / scenecut=40 / intra_refresh=0 / rc=2pass / mbtree=0 / bitrate=8320 / ratetol=1.0 / qcomp=0.60 / qpmin=0 / qpmax=69 / qpstep=4 / cplxblur=20.0 / qblur=0.5 / ip_ratio=1.40 / pb_ratio=1.30 / aq=2:1.00
    Language                                 : English
    Default                                  : Yes
    Forced                                   : No

    Audio #1
    ID                                       : 2
    Format                                   : AC-3
    Format/Info                              : Audio Coding 3
    Mode extension                           : CM (complete main)
    Codec ID                                 : A_AC3
    Duration                                 : 1h 58mn
    Bit rate mode                            : Constant
    Bit rate                                 : 384 Kbps
    Channel(s)                               : 6 channels
    Channel positions                        : Front: L C R, Side: L R, LFE
    Sampling rate                            : 48.0 KHz
    Bit depth                                : 16 bits
    Compression mode                         : Lossy
    Stream size                              : 326 MiB (4%)
    Title                                    : Профессиональный (многоголосый, закадровый) R5
    Language                                 : Russian
    Default                                  : Yes
    Forced                                   : No

    Audio #2
    ID                                       : 3
    Format                                   : AC-3
    Format/Info                              : Audio Coding 3
    Mode extension                           : CM (complete main)
    Codec ID                                 : A_AC3
    Duration                                 : 1h 58mn
    Bit rate mode                            : Constant
    Bit rate                                 : 640 Kbps
    Channel(s)                               : 6 channels
    Channel positions                        : Front: L C R, Side: L R, LFE
    Sampling rate                            : 48.0 KHz
    Bit depth                                : 16 bits
    Compression mode                         : Lossy
    Stream size                              : 544 MiB (7%)
    Language                                 : English
    Default                                  : No
    Forced                                   : No

    Menu
    00:00:00.000                             : en:00:00:00.000
    00:16:32.825                             : en:00:16:32.825
    00:31:51.034                             : en:00:31:51.034
    00:48:08.469                             : en:00:48:08.469
    01:06:11.593                             : en:01:06:11.593
    01:22:15.639                             : en:01:22:15.639
    01:37:12.702                             : en:01:37:12.702
    01:54:42.876                             : en:01:54:42.876

    x264 [info]: frame I:1051 Avg QP:16.62 size:155253
    x264 [info]: frame P:38178 Avg QP:19.14 size: 75077
    x264 [info]: frame B:131603 Avg QP:21.27 size: 33257
    pb.wtf



    Скачать МЫ. Верим в любовь через торрент http://i66.fastpic.ru/big/2015/0919/fa/051ef988e313d625ed743ff32e3cb2fa.png Скачать фильм МЫ. Верим в любовь через торрент бесплантно в хорошем качестве Описание:Роман короля Великобритании Эдуарда VIII и американки Уоллис Симпсон взбудоражил общественность. На момент знакомства с принцем ... 10 10 3
    Info! Золотая раздача, скачанное не засчитывается.
    Торрент: Зарегистрирован [2015-09-19 14:08] · скачан: 52 раз
    Статус: √ проверено
    Размер: 7.75 GB
    Как cкачать? Как скачать МЫ. Верим в любовь через торрент | qTorrent

    % Раздел Тема Автор DL S | L
    Фильмы 2011 [ 2.06 GB ] МЫ. Верим в любовь / W.E [2011 HDRip] MVO [ лицензия ] + Original Mr. Freeman Скачать
    1 | 0

    28-11-2019 20:33  

    Отключить всю рекламу на сайте

      Дорогой пользователь! Огромная просьба, поблагодарите релизера, оцените раздачу и оставьте свои комментарий, если Вы скачали МЫ. Верим в любовь через торрент бесплатно! Внесите свою лепту в развитие PiratBit!
      Комментировать посты могут только пользователи прошедшие не сложную регистрацию
      Показать сообщения:    

      МЫ. Верим в любовь через торрент
      Скачать бесплатно МЫ. Верим в любовь
      МЫ. Верим в любовь скачать торрент
      МЫ. Верим в любовь смотреть онлайн
      Cкачать фильм МЫ. Верим в любовь бесплатно
      МЫ. Верим в любовь скачать торрент в хорошем качестве
      МЫ. Верим в любовь смотреть онлайн бесплатно в хорошем качестве


      Вы не можете начинать темы
      Вы не можете отвечать на сообщения
      Вы не можете редактировать свои сообщения
      Вы не можете удалять свои сообщения
      Вы не можете голосовать в опросах
      Вы не можете прикреплять файлы к сообщениям
      Вы можете скачивать файлы