Ссылка на приватное зеркало нашего сайта всего за 1$. Внимание количество ограничено!!!

2 сезон

iTunes

1 сезон

1

2 сезон

2 сезон

iTunes

1 сезон

RePack

30

Ultimate

ВАЖНО

ИГРА 18+

pack

RePack

MK11
pack

Забери бонус

RePack

jed

!!Акция!!

Alien_Rage

RePack

fifa19

RePack

Assassins Creed: Odyssey

RePack

NEED FOR SPEED™ PAYBACK

4 сезон

9 сезон

Бесстыжие 9 сезон

Все сериалы

все сериалы на PB.wtf

RePack

FAR CRY 5
  

Шпион / Spy (Пол Фиг) [2015 г., Боевик, комедия, криминал, BD-Remux 1080p] Дубляж [iTunes] [Расширенная версия] pb.wtf

Шпион через торрент pb.wtf

Размер: 24.28 GB | Добавлен: 5 лет 2 мес. назад | Торрент скачан:36 раз
Скачать  

19-09-2015 15:56 Шпион Скачать торрент  

Шпион (Расширенная версия) / Spy (Unrated Cut)
Год выпуска: 2015
Страна: США
Жанр: Боевик, комедия, криминал
Продолжительность: 02:10:22
Перевод: Дубляж [iTunes]+ Оригинал+ Украинский+ Коментарии
Субтитры: Русские (Forced, iTunes), Русские (iTunes), Английские (SDH), Украинские (iTunes)

Режиссер: Пол Фиг

В ролях: Мелисса МакКарти, Джейсон Стэйтем, Джуд Лоу, Роуз Бирн, Миранда Харт, Бобби Каннавейл, Морена Баккарин, Раад Рави, Джессика Чаффин, Сэм Ричардсон, Кэти Дипполд, Джейм Пачеко, Ромейн Апельбаум, Ричард Брэйк, Стив Баннос, Карлос Понсе, Уилл Юн Ли, Майкл МакДональд, Адам Рэй, Лукач Бичкеи

Описание: Сьюзан Купер всю свою жизнь мечтала стать секретным агентом и даже устроилась работать в ЦРУ. Однако, дальше сотрудника самой низкой ступени ей так и не удалось продвинуться. Понимая, что осуществить свою мечту практически невозможно, она все-таки продолжает надеяться на лучшее и с нетерпением ожидает своего шанса. И вскоре судьба дарит ей такую возможность. Лучший агент проваливает секретное задание, в ходе которого он должен был выяснить местонахождение ядерной бомбы, но, совершенно случайно, застрелил единственного человека, владеющего этой информацией. Через некоторое время службе разведки становится известно, что Рейна Боянова знает, где находится бомба, но она также знает в лицо всех секретных агентов ЦРУ. Теперь у руководства не остается другого выбора, как воспользоваться услугами Сьюзан Купер, но сможет ли она справиться со столь сложной миссией?

Качество: BD-Remux
Формат: BDАV
Видео кодек: H.264
Аудио кодек: AC3; DTS-HD MA
Видео: MPEG-4 AVC, (1920x1080),19392 Кбит/с, 23.976 кадра/сек
Аудио#1: Русский, AC3, 6 ch, 384 kbps, 48.0 KHz Дублированный (iTunes Russia)
Аудио#2: Украинский, AC3, 2 ch, 192 kbps, 48.0 KHz
Аудио#3: Английский, DTS-HD MA, 7.1, ~4760.00, 48.0 KHz (Оригинал)
Аудио#4: Английский, AC3, 2 ch, 224 kbps, 48.0 KHz (Коментарии)
скриншот   скриншот   скриншот  

Тип потока: Видео
Длительность: 02:10:22
Кодек: AVC
Кодек/описание: Advanced Video Codec
Кодек/профиль: High@L4.1
Кодек/ID: 27
Кодек/CABAC: Yes
Кодек/ReFrames: 4 frames
Размеры изображения: 1920 x 1080 (16:9)
Частота кадров: 23.976 fps
Битрейт/макс: 35.0 Mbps
Битрейт/тип: VBR
Цветовое пространство: YUV
Тип развёртки: Progressive
Колориметрия: 4:2:0
Глубина: 8 bits
:
Тип потока: Звук #1
Длительность: 02:10:23.872
Кодек: AC-3
Кодек/описание: Audio Coding 3
Кодек/ID: 129
Частота дискретизации: 48.0 KHz
Каналов: 6 channels
Битрейт: 384 Kbps
Битрейт/тип: Constant
Размер потока: 358 MiB (1%)
Глубина: 16 bits
Метод сжатия: Lossy
:
Тип потока: Звук #2
Длительность: 02:10:23.936
Кодек: AC-3
Кодек/описание: Audio Coding 3
Кодек/ID: 129
Частота дискретизации: 48.0 KHz
Каналов: 2 channels
Битрейт: 192 Kbps
Битрейт/тип: Constant
Размер потока: 179 MiB (1%)
Глубина: 16 bits
Метод сжатия: Lossy
:
Тип потока: Звук #3
Длительность: 02:10:22.955
Кодек: DTS
Кодек/описание: Digital Theater Systems
Кодек/профиль: MA / Core
Режим смешивания: Stream extension
Кодек/ID: 134
Частота дискретизации: 48.0 KHz
Каналов: 8 channels / 6 channels
Битрейт: Unknown / 1 509 Kbps
Битрейт/тип: Variable
Глубина: 24 bits
Метод сжатия: Lossless / Lossy
:
Тип потока: Звук #4
Длительность: 02:10:23.008
Кодек: AC-3
Кодек/описание: Audio Coding 3
Кодек/ID: 129
Частота дискретизации: 48.0 KHz
Каналов: 2 channels
Битрейт: 224 Kbps
Битрейт/тип: Constant
Размер потока: 209 MiB (1%)
Глубина: 16 bits
Метод сжатия: Lossy
:
Тип потока: Субтитры #1
Формат: PGS
:
Тип потока: Субтитры #2
Формат: PGS
:
Тип потока: Субтитры #3
Формат: PGS
:
Тип потока: Субтитры #4
Формат: PGS
:
Тип потока: Субтитры #5
Формат: PGS
:
Тип потока: Субтитры #6
Формат: PGS

pb.wtf



Скачать Шпион через торрент http://pic1.kartinco.top/images/10/on5nz.jpg Скачать фильм Шпион через торрент бесплантно в хорошем качестве Описание: Сьюзан Купер всю свою жизнь мечтала стать секретным агентом и даже устроилась работать в ЦРУ. Однако, дальше сотрудника самой ... 10 10 4
Info! Золотая раздача, скачанное не засчитывается.
Торрент: Зарегистрирован [2015-09-19 15:56] · скачан: 36 раз
Статус: √ проверено
Размер: 24.28 GB
Как cкачать? Как скачать Шпион через торрент | qTorrent

% Раздел Тема Автор DL S | L
Фильмы 2015 [DVDrip, WEB-DLRip, HDrip] [ 1.46 GB ] Шпион / Spy [2015 BDRip] DUB Twi7ter Скачать
1 | 0
Фильмы 2018 [DVDrip, WEB-DLRip, HDrip] (DUB, MVO) [ 1.71 GB ] Шпионская игра / The Catcher Was a Spy [2018 WEB-DLRip-AVC] MVO [HDRezka Studio] + bober100 Скачать
1 | 0
Фильмы до 2000 г. [ 1.77 GB ] Неистребимый шпион / Spy Hard [1996 пародия WEB-DLRip] 2x[MVO] + [DVO] + 3х[AVO] killermax2013 Скачать
1 | 0
Ultra HD (UHD: 2K, 4K, 8K) — видео сверхвысокой чёткости [ 30.16 GB ] Шпион / Spy [2015 UHD WEBRip 2160p] DUB [] [Театральная версия] bober100 Скачать
1 | 0
Фильмы 2015 [DVDrip, WEB-DLRip, HDrip] [ 2.91 GB ] Шпионский мост / Bridge of Spies [2015 Германия Индия биография BDRip-AVC от sokol_ok] DUB sokol_ok Скачать
1 | 0
Фильмы [HD 720p, 1080p] (Хороший звук DUB, MVO) [ 7.43 GB ] Шпион / Spy [2015 BDRip 720p] Dub [Расширенная версия] [] potroks Скачать
1 | 0
Фильмы (HD 720p, 1080p) (48-60 fps) [ 6.12 GB ] Шпион / Spy [2015 BDRip 720p 60 fps от _denis_100 / NNNB] DUB AVO _denis_100 Скачать
1 | 0

28-11-2019 20:33  

Отключить всю рекламу на сайте

    Дорогой пользователь! Огромная просьба, поблагодарите релизера, оцените раздачу и оставьте свои комментарий, если Вы скачали Шпион через торрент бесплатно! Внесите свою лепту в развитие PiratBit!
    Комментировать посты могут только пользователи прошедшие не сложную регистрацию
    Показать сообщения:    

    Шпион через торрент
    Скачать бесплатно Шпион
    Шпион скачать торрент
    Шпион смотреть онлайн
    Cкачать фильм Шпион бесплатно
    Шпион скачать торрент в хорошем качестве
    Шпион смотреть онлайн бесплатно в хорошем качестве


    Вы не можете начинать темы
    Вы не можете отвечать на сообщения
    Вы не можете редактировать свои сообщения
    Вы не можете удалять свои сообщения
    Вы не можете голосовать в опросах
    Вы не можете прикреплять файлы к сообщениям
    Вы можете скачивать файлы