1 сезон

1 сезон

iTunes

1

КиноПоиск HD

Кинопоиск HD

iTunes

13

1 сезон

RePack

30

Новинка

ВАЖНО

ИГРА 18+

pack

RePack

MK11
pack

Легкие деньги

RePack

jed

RePack

fifa19

RePack

RDR2

RePack

NEED FOR SPEED™ PAYBACK

4 сезон

9 сезон

Бесстыжие 9 сезон

Все сериалы

все сериалы на PB.wtf

RePack

FAR CRY 5
  
Magnet ссылка

Крутые времена / Harsh Times (Дэвид Эйр) [2005 г., боевик, триллер, драма, криминал, HDRip by Dean24] (Профессиональный многоголосый, Лицензия) pb.wtf

Крутые времена через торрент pb.wtf

Качают: 2 [ 0 KB/s ]
Размер: 2.18 GB | Добавлен: 5 лет 6 мес. назад | Торрент скачан:327 раз
Скачать  

20-09-2015 10:28 Крутые времена Скачать торрент  

Крутые времена / Harsh TimesГод выпуска: 2005
Страна: США
Жанр: боевик, триллер, драма, криминал
Продолжительность: 01:56:14
Перевод: Профессиональный многоголосый, Лицензия | R5 / West Video
Субтитры: Нет

Режиссер: Дэвид Эйр
Продюссер: Дэвид Эйр, Андреа Сперлинг, Кристиан Бэйл
Сценарий: Дэвид Эйр

Бюджет: $2 000 000
Премьера в мире: 11 сентября 2005



В ролях: Кристиан Бэйл, Фредди Родригес, Ева Лонгория, Чака Форман, Тэмми Трулл, Дж.К. Симмонс, Майкл Монкс, Саманта Бекер, Таня Верафилд, Ноэль Гульеми

Описание: Джим Дэвис, вернувшись с войны назад в Лос-Анджелес, хочет устроиться в полицию. Но, встретив старых приятелей, он намерен слегка развлечься. Начав помалу, Джим стартует на полную катушку, напомнив всем крутые времена!

Качество: HDRip | BDRip 720p
Формат: AVI
Видео кодек: XviD
Аудио кодек: AC3
Видео: 704x384 (1.83:1), 23.976 fps, XviD build 50 ~2294 kbps avg, 0.35 bit/pixe
Аудио: 48 kHz, AC3 Dolby Digital, 3/2 (L,C,R,l,r) + LFE ch, ~384 kbps



Автор рипа: Dean24
|
Общее
Полное имя : D:\Мои документы\Фильмы\Сайт\Harsh.Times.HDRip.avi
Формат : AVI
Формат/Информация : Audio Video Interleave
Профиль формата : OpenDML
Размер файла : 2,18 Гбайт
Продолжительность : 1 ч. 56 м.
Общий поток : 2685 Кбит/сек
Программа кодирования : VirtualDubMod 1.5.10.3 | (build 2550/release)
Библиотека кодирования : VirtualDubMod build 2550/release

Видео
Идентификатор : 0
Формат : MPEG-4 Visual
Профиль формата : Advanced Simple@L5
Параметр BVOP формата : 3
Параметр QPel формата : Нет
Параметр GMC формата : Без точки перехода
Параметр матрицы формата : Default (H.263)
Идентификатор кодека : XVID
Идентификатор кодека/Подсказка : XviD
Продолжительность : 1 ч. 56 м.
Битрейт : 2290 Кбит/сек
Ширина : 704 пикселя
Высота : 384 пикселя
Соотношение сторон : 1,85:1
Частота кадров : 23,976 кадра/сек
Цветовое пространство : YUV
Субдискретизация насыщенности : 4:2:0
Битовая глубина : 8 бит
Тип развёртки : Прогрессивная
Метод сжатия : С потерями
Бит/(Пиксели*Кадры) : 0.353
Размер потока : 1,86 Гбайт (85%)
Библиотека кодирования : XviD 1.2.1 (UTC 2008-12-04)

Аудио
Идентификатор : 1
Формат : AC-3
Формат/Информация : Audio Coding 3
Расширение режима : CM (complete main)
Параметр Endianness формата : Big
Идентификатор кодека : 2000
Продолжительность : 1 ч. 56 м.
Вид битрейта : Постоянный
Битрейт : 384 Кбит/сек
Каналы : 6 каналов
Расположение каналов : Front: L C R, Side: L R, LFE
Частота : 48,0 КГц
Битовая глубина : 16 бит
Метод сжатия : С потерями
Размер потока : 319 Мбайт (14%)
Выравнивание : Разделение по промежуткам
Продолжительность промежутка : 42 мс. (1,00 видеокадр)
Время предзагрузки промежутка : 500 мс.

pb.wtf



Скачать Крутые времена через торрент http://i67.fastpic.ru/big/2015/0920/7d/3c5f651db8d3252587f7bd3a50be8d7d.jpg Скачать фильм Крутые времена через торрент бесплантно в хорошем качестве Описание: Джим Дэвис, вернувшись с войны назад в Лос-Анджелес, хочет устроиться в полицию. Но, встретив старых приятелей, он намерен слегка ... 9.7 10 11
Info! Серебряная раздача, засчитывается только 50% скачанного.
Торрент: Зарегистрирован [2015-09-20 10:28] · скачан: 327 раз
Статус: √ проверено
Размер: 2.18 GB
Как cкачать? Как скачать Крутые времена через торрент | UTorrent

% Раздел Тема Автор DL S | L
Фильмы [HD 720p, 1080p] (Хороший звук DUB, MVO) [ 3.87 GB ] Крутые времена / Harsh Times [2005 BDRip 720p MVO лицензия + VO] Дрю Скачать
1 | 0
Фильмы 2001-2005 [ 1.46 GB ] Крутые времена / Harsh Times [2005 HDRip MVO] lev1244v Скачать
1 | 0
Фильмы [HD 720p, 1080p] (Хороший звук DUB, MVO) [ 10.28 GB ] Крутые времена / Harsh Times [2005 BDRip] Flint3 Скачать
1 | 1


Последний раз редактировалось: Dean24 (2015-09-20 13:27), всего редактировалось 1 раз

28-11-2019 20:33  

Отключить всю рекламу на сайте

20-09-2015 11:48 Крутые времена Скачать торрент  

зачётный фильмец! Спасибо!pb.wtf



    Дорогой пользователь! Огромная просьба, поблагодарите релизера, оцените раздачу и оставьте свои комментарий, если Вы скачали Крутые времена через торрент бесплатно! Внесите свою лепту в развитие PiratBit!
    Комментировать посты могут только пользователи прошедшие не сложную регистрацию
    Показать сообщения:    

    Крутые времена через торрент
    Скачать бесплатно Крутые времена
    Крутые времена скачать торрент
    Крутые времена смотреть онлайн
    Cкачать фильм Крутые времена бесплатно
    Крутые времена скачать торрент в хорошем качестве
    Крутые времена смотреть онлайн бесплатно в хорошем качестве


    Вы не можете начинать темы
    Вы не можете отвечать на сообщения
    Вы не можете редактировать свои сообщения
    Вы не можете удалять свои сообщения
    Вы не можете голосовать в опросах
    Вы не можете прикреплять файлы к сообщениям
    Вы можете скачивать файлы