Ссылка на приватное зеркало всего за 1$. Внимание количество ограничено!!!

iTunes

iTunes

iTunes

1

iTunes

iTunes

iTunes

iTunes

iTunes

30
pack

$ от Little Big

ВАЖНО

!!Акция!!

Alien_RageХит недели

RePack

Resident Evil 21

ИГРА 18+

pack

RePack

jed

!!Акция!!

Alien_Rage

RePack

fifa19

RePack

Assassins Creed: Odyssey

RePack

NEED FOR SPEED™ PAYBACK

4 сезон

9 сезон

Бесстыжие 9 сезон

Все сериалы

все сериалы на PB.wtf

RePack

FAR CRY 5
  

Земля будущего / Tomorrowland (Брэд Бёрд) [2015 г., фантастика, боевик, детектив, приключения, семейный, WEB-DLRip 720p, Дубляж [iTunes] pb.wtf

Земля будущего через торрент pb.wtf

Размер: 4.06 GB | Добавлен: 4 года 9 мес. назад | Торрент скачан:569 раз
Скачать  

21-09-2015 01:10 Земля будущего Скачать торрент  

Земля будущего / Tomorrowland
Год выпуска: 2015
Страна: США
Жанр: фантастика, боевик, детектив, приключения, семейный
Продолжительность: 02:10:19
Перевод: Дубляж [iTunes]

Режиссер: Брэд Бёрд
Продюссер: Брэд Бёрд, Джеффри Чернов, Дэймон Линделоф
Сценарий: Дэймон Линделоф, Брэд Бёрд, Джефф Дженсен

Бюджет: 000 000
Премьера в мире: 9 мая 2015

IMDB 6.60 (44 404)


В ролях: Бритт Робертсон, Джордж Клуни, Рэффи Кэссиди, Хью Лори, Тим МакГроу, Кэтрин Хан, Кигэн-Майкл Ки, Кристофер Бауэр, Томас Робинсон, Пирс Гэнон, Диана Конопелько, Станислав Концевич, Анна Хасанова, Валерий Кухарешин, Виталий Такс

Описание: Когда в руки к молодой девушке, жаждущей новых приключений, попадает загадочный предмет, открывающий доступ в параллельную реальность, она вынуждена обратиться за помощью к циничному гению-изобретателю Фрэнку. Кейси должна убедить бывшего вундеркинда раскрыть ей тайну загадочного места, находящегося вне привычной реальности, известного как Земля будущего, и убедить Фрэнка вернуться туда, откуда его однажды изгнали...

Качество: WEB-DLRip 720p
Формат: MKV
Видео кодек: AVC
Аудио кодек: AC3
Видео: 1280x580 (2.2:1), 3990 kbps, 23,976 fps, 0,224 bpp
Аудио: русский / 5.1 / 48 kHz / 384 kbps / 16 bit
Общее
Уникальный идентификатор : 204093117106205919636773685211403433320 (0x998AE791C1A8393EBEE229330B7CB568)
Полное имя : 3emLiYa.buduW4eg0.2015.D.WEB-DL.720p.mkv
Формат : Matroska
Версия формата : Version 4 / Version 2
Размер файла : 4,06 Гбайт
Продолжительность : 2 ч. 10 м.
Общий поток : 4463 Кбит/сек
Дата кодирования : UTC 2015-09-20 18:13:42
Программа кодирования : mkvmerge v6.9.1 ('Blue Panther') 64bit built on Apr 18 2014 18:23:38
Библиотека кодирования : libebml v1.3.0 + libmatroska v1.4.1

Видео
Идентификатор : 1
Формат : AVC
Формат/Информация : Advanced Video Codec
Профиль формата : High@L3.1
Параметр CABAC формата : Нет
Параметр ReFrames формата : 2 кадра
Идентификатор кодека : V_MPEG4/ISO/AVC
Продолжительность : 2 ч. 10 м.
Битрейт : 3990 Кбит/сек
Ширина : 1280 пикселей
Высота : 580 пикселей
Соотношение сторон : 2,2:1
Режим частоты кадров : Постоянный
Частота кадров : 23,976 кадра/сек
Цветовое пространство : YUV
Субдискретизация насыщенности : 4:2:0
Битовая глубина : 8 бит
Тип развёртки : Прогрессивная
Бит/(Пиксели*Кадры) : 0.224
Размер потока : 3,63 Гбайт (89%)
Язык : English
Default : Да
Forced : Нет
Основные цвета : BT.709
Характеристики трансфера : BT.709
Коэффициенты матрицы : BT.709

Аудио
Идентификатор : 2
Формат : AC-3
Формат/Информация : Audio Coding 3
Расширение режима : CM (complete main)
Параметр Endianness формата : Big
Идентификатор кодека : A_AC3
Продолжительность : 2 ч. 10 м.
Вид битрейта : Постоянный
Битрейт : 384 Кбит/сек
Каналы : 6 каналов
Расположение каналов : Front: L C R, Side: L R, LFE
Частота : 48,0 КГц
Битовая глубина : 16 бит
Метод сжатия : С потерями
Размер потока : 358 Мбайт (9%)
Язык : Russian
Default : Да
Forced : Нет

Меню
00:00:00.000 : en:1
00:16:12.000 : en:2
00:21:56.000 : en:3
00:28:52.000 : en:4
00:37:37.000 : en:5
00:46:35.000 : en:6
00:55:00.000 : en:7
01:11:47.000 : en:8
01:19:18.000 : en:9
01:26:44.000 : en:10
01:30:57.000 : en:11
01:38:05.000 : en:12
01:49:50.000 : en:13
01:56:11.000 : en:14
02:01:26.000 : en:15


Земля будущего скачать торрент


pb.wtf



Скачать Земля будущего через торрент http://pic.kartinco.top/images/11/lqbp7.jpg Скачать фильм Земля будущего через торрент бесплантно в хорошем качестве Описание: Когда в руки к молодой девушке, жаждущей новых приключений, попадает загадочный предмет, открывающий доступ в параллельную ... 9.8 10 19
Info! Золотая раздача, скачанное не засчитывается.
Торрент: Зарегистрирован [2015-09-21 01:10] · скачан: 569 раз
Статус: √ проверено
Размер: 4.06 GB
Как cкачать? Как скачать Земля будущего через торрент | qTorrent

% Раздел Тема Автор DL S | L
Фильмы 2015 [DVDrip, WEB-DLRip, HDrip] [ 1.47 GB ] Земля будущего / Tomorrowland [2015 WEBRip] [Open Matte / Локализованный видеряд] killermax2013 Скачать
2 | 0
Фильмы (Blu-ray, BD-Remux, HDDVD) [ 34.73 GB ] Земля будущего / Tomorrowland [2015 BDRemux 1080p] - [] sheker187 Скачать
1 | 0
T Фильмы [HD 720p, 1080p] (Хороший звук DUB, MVO) [ 7.76 GB ] Земля будущего / Tomorrowland [2015 BDRip 1080p ] solektra13 Скачать
1 | 0
Фильмы (Blu-ray, BD-Remux, HDDVD) [ 28.78 GB ] Земля будущего / Tomorrowland [2015 BDRemux 1080p / ] Ворон Скачать
1 | 0
Фильмы 2015 [DVDrip, WEB-DLRip, HDrip] [ 2.05 GB ] Земля будущего / Tomorrowland [2015 BDRip-AVC] killermax2013 Скачать
1 | 0
Фильмы 2015 [DVDrip, WEB-DLRip, HDrip] [ 2.19 GB ] Земля будущего / Tomorrowland [2015 BDRip ""] coc900 Скачать
3 | 0
Фильмы 2015 [DVDrip, WEB-DLRip, HDrip] [ 1.46 GB ] Земля будущего / Tomorrowland [2015 Испания BDRip] DUB Twi7ter Скачать
2 | 0

28-11-2019 20:33  

Отключить всю рекламу на сайте

04-10-2015 15:52 Земля будущего Скачать торрент  

Цитата:

Бюджет: 000 000

P.S. Спасибо за раздачу. Скачаю, гляну с семьей вечерком pb.wtf



    Дорогой пользователь! Огромная просьба, поблагодарите релизера, оцените раздачу и оставьте свои комментарий, если Вы скачали Земля будущего через торрент бесплатно! Внесите свою лепту в развитие PiratBit!
    Комментировать посты могут только пользователи прошедшие не сложную регистрацию
    Показать сообщения:    

    Земля будущего через торрент
    Скачать бесплатно Земля будущего
    Земля будущего скачать торрент
    Земля будущего смотреть онлайн
    Cкачать фильм Земля будущего бесплатно
    Земля будущего скачать торрент в хорошем качестве
    Земля будущего смотреть онлайн бесплатно в хорошем качестве


    Вы не можете начинать темы
    Вы не можете отвечать на сообщения
    Вы не можете редактировать свои сообщения
    Вы не можете удалять свои сообщения
    Вы не можете голосовать в опросах
    Вы не можете прикреплять файлы к сообщениям
    Вы можете скачивать файлы