новый адрес
Мега распродажа FORZA HORIZON 4 ULTIMATE+ВСЕ DLC+ОНЛАЙН всего за 499р. 349 руб. (супер цена). Внимание количество ограничено!!!

iTunes

1+1

iTunes

мы

iTunes

1

iTunes

Чернобыль

iTunes

Ральф против интернета

Лицензия

ПШазам

Лицензия

Оно 2

Лицензия

30
pack

ВАЖНО

!!Акция!!

Alien_RageХит недели

RePack

Resident Evil 21

ИГРА 18+

pack

RePack

jed

!!Акция!!

Alien_Rage

RePack

fifa19

RePack

Assassins Creed: Odyssey

RePack

NEED FOR SPEED™ PAYBACK

3 сезон

9 сезон

Бесстыжие 9 сезон

Все сериалы

все сериалы на PB.wtf

RePack

FAR CRY 5
Ребята, катастрофически не хватает 1900р. для оплаты серверов за Октябрь (всвязи с блокировками трафик упал в 3 раза), 1-2р., выручайте.
  

Далеко от Москвы (Александр Столпер) [1950, СССР, драма, DVDRip от AVP Studio] pb.wtf

Далеко от Москвы через торрент pb.wtf

Размер: 746 MB | Добавлен: 4 года 2 мес. назад | Торрент скачан:4 раза
Скачать  

21-09-2015 13:10 Далеко от Москвы Скачать торрент  

Далеко от Москвы
Страна: СССР
Производство: Мосфильм

Жанр: драма
Год выпуска: 1950
Продолжительность: 01:40:01

Перевод: Не требуется
Cубтитры: нет
Оригинальная аудиодорожка: русский

Режиссер: Александр Столпер

В ролях:
Николай Охлопков, Лев Свердлин, Павел Кадочников, Валериан Квачадзе, Александр Ханов, Григорий Кириллов, Татьяна Махова (II), Иветта Киселёва, Владимир Владиславский, Сергей Столяров, Марк Бернес, Леонид Кмит, Степан Крылов, Павел Оленев, Владимир Соловьёв, Виктор Бубнов, Сергей Гурзо (старший), П. Иванов...
Полный список актёров

Описание:
По одноименному роману Василия Ажаева.
Около Красноярска прокладывается нефтепровод. Идет война. Поэтому есть среди молодых специалистов такие, которые чувствуют себя неуместными на поле трудовых сражений. Некоторым задача провести трубопровод в кратчайшие сроки кажется невозможной и ненужной...

Источник: DVD5 R5
Качество видео: DVDRip
Формат видео: AVI

Видео: 576x432 (4:3), 25 fps, XviD ~ 904 kbps avg, 0.145 bit/pixel
Аудио: 48 kHz, MP3 2.0, 128 kbps

Раздача от:
Общее
Полное имя : Daleko.ot.Moskvy.1950.DVDRip-745_[New-team]_by_AVP_Studio.avi
Формат : AVI
Формат/Информация : Audio Video Interleave
Размер файла : 746 Мбайт
Продолжительность : 1 ч. 40 м.
Общий поток : 1042 Кбит/сек
Программа кодирования : VirtualDubMod 1.5.10.3 | www.virtualdub-fr.org || (build 2550/release)
Библиотека кодирования : VirtualDubMod build 2550/release

Видео
Идентификатор : 0
Формат : MPEG-4 Visual
Профиль формата : Advanced Simple@L5
Параметр BVOP формата : 1
Параметр QPel формата : Нет
Параметр GMC формата : Без точки перехода
Параметр матрицы формата : Выборочная
Идентификатор кодека : XVID
Идентификатор кодека/Подсказка : XviD
Продолжительность : 1 ч. 40 м.
Битрейт : 904 Кбит/сек
Ширина : 576 пикселей
Высота : 432 пикселя
Соотношение сторон : 4:3
Частота кадров : 25,000 кадров/сек
Цветовое пространство : YUV
Субдискретизация насыщенности : 4:2:0
Битовая глубина : 8 бит
Тип развёртки : Прогрессивная
Метод сжатия : С потерями
Бит/(Пиксели*Кадры) : 0.145
Размер потока : 647 Мбайт (87%)
Библиотека кодирования : XviD 73

Аудио
Идентификатор : 1
Формат : MPEG Audio
Версия формата : Version 1
Профиль формата : Layer 3
Идентификатор кодека : 55
Идентификатор кодека/Подсказка : MP3
Продолжительность : 1 ч. 40 м.
Вид битрейта : Постоянный
Битрейт : 128 Кбит/сек
Каналы : 2 канала
Частота : 48,0 КГц
Метод сжатия : С потерями
Размер потока : 91,6 Мбайт (12%)
Выравнивание : Соединение по промежуткам
Продолжительность промежутка : 40 мс. (1,00 видеокадр)
Время предзагрузки промежутка : 504 мс.
Библиотека кодирования : LAME3.99r
Настройки программы : -m s -V 4 -q 2 -lowpass 17 -b 128
pb.wtf



Скачать Далеко от Москвы через торрент http://s017.radikal.ru/i405/1509/a6/823a13c5df85.png Скачать фильм Далеко от Москвы через торрент бесплантно в хорошем качестве Описание:По одноименному роману Василия Ажаева.Около Красноярска прокладывается нефтепровод. Идет война. Поэтому есть среди молодых ... 10 10 1
Info! Золотая раздача, скачанное не засчитывается.
Торрент: Зарегистрирован [2015-09-21 13:10] · скачан: 4 раз
Статус: √ проверено
Размер: 746 MB
Как cкачать? Как скачать Далеко от Москвы через торрент | qTorrent

% Раздел Тема Автор DL S | L
Кино СССР [ 1.46 GB ] Далеко от Москвы [1950 СССР DVDRip-AVC от AVP Studio] AVP Studio Скачать
1 | 0
Кино СССР [ 1.46 GB ] Далеко от Москвы [1950 СССР DVDRip от AVP Studio] AVP Studio Скачать
1 | 0


>> Регистрируемся здесь <<






Отзывы и комментарии о схеме читаем и пишем здесь: ---> Отзывы и комментарии о схеме

Новые благодарочки в телеграм довольных пользователей:
скриншот   скриншот   скриншот   скриншот   скриншот
    Дорогой пользователь! Огромная просьба, поблагодарите релизера, оцените раздачу и оставьте свои комментарий, если Вы скачали Далеко от Москвы через торрент бесплатно! Внесите свою лепту в развитие PiratBit!
    Комментировать посты могут только пользователи прошедшие не сложную регистрацию
    Показать сообщения:    

    Далеко от Москвы через торрент
    Скачать бесплатно Далеко от Москвы
    Далеко от Москвы скачать торрент
    Далеко от Москвы смотреть онлайн
    Cкачать фильм Далеко от Москвы бесплатно
    Далеко от Москвы скачать торрент в хорошем качестве
    Далеко от Москвы смотреть онлайн бесплатно в хорошем качестве


    Вы не можете начинать темы
    Вы не можете отвечать на сообщения
    Вы не можете редактировать свои сообщения
    Вы не можете удалять свои сообщения
    Вы не можете голосовать в опросах
    Вы не можете прикреплять файлы к сообщениям
    Вы можете скачивать файлы