Ссылка на приватное зеркало нашего сайта всего за 1$. Внимание количество ограничено!!!

2 сезон

iTunes

1 сезон

1

iTunes

iTunes

iTunes

1 сезон

RePack

30

ИГРА 18+

pack

ВАЖНО

!!Акция!!

Alien_RageХит недели

RePack

MK11
pack

Забери бонус

RePack

jed

!!Акция!!

Alien_Rage

RePack

fifa19

RePack

Assassins Creed: Odyssey

RePack

NEED FOR SPEED™ PAYBACK

4 сезон

9 сезон

Бесстыжие 9 сезон

Все сериалы

все сериалы на PB.wtf

RePack

FAR CRY 5
  

1+1 / Intouchables (Оливье Накаш, Эрик Толедано) [2011, драма, комедия, биография, BDRip 1080p by msltel] DUB, MVO pb.wtf

1+1 через торрент pb.wtf

Размер: 15.64 GB | Добавлен: 5 лет 1 мес. назад | Торрент скачан:297 раз
Скачать  

21-09-2015 13:49 1+1 Скачать торрент  

Название: 1+1
Оригинальное название: Intouchables
Год выпуска: 2011
Страна: Франция
Жанр: драма, комедия, биография
Продолжительность: 01:52:02
Перевод: дублированный, профессиональный многоголосый

Режиссёр: Оливье Накаш, Эрик Толедано

В ролях: Франсуа Клюзе, Омар Си, Анн Лё Ни, Одри Флеро, Клотильд Молле, Альба Гайя Крагеде Беллуджи, Сирил Менди, Кристиан Амери, Грегуар Эстерманн, Жозефин де Мо

Описание: Пострадавший в результате несчастного случая богатый аристократ Филипп нанимает в помощники человека, который менее всего подходит для этой работы, — молодого жителя предместья Дрисса, только что освободившегося из тюрьмы. Несмотря на то, что Филипп прикован к инвалидному креслу, Дриссу удаётся привнести в размеренную жизнь аристократа дух приключений...



Качество: BDRip 1080p Сравнение с исходником
Формат: MKV
Видео: MPEG-4 AVC, 15.9 Mбит/с, 1920x1040, 24.000 кадр/с
Аудио 1: русский, AC3, 640 kbps, 6 ch, 48 kHz [дублированный]
Аудио 2: русский, DTS, 1509 kbps, 6 ch, 48 kHz [профессиональный многоголосый]
Аудио 3: французский, DTS, 1509 kbps, 6 ch, 48 kHz [оригинал]
Субтитры: русские
Золотой глобус, 2013 год
Номинации (1):
Лучший фильм на иностранном языке

Британская академия, 2013 год
Номинации (1):
Лучший фильм на иностранном языке

Жорж, 2013 год
Победитель (2):
Лучшая зарубежная комедия
Лучшая зарубежная драма

Гойя, 2013 год
Победитель (1):
Лучший европейский фильм

Сезар, 2012 год
Победитель (1):
Лучший актер ( Омар Си )

Номинации (8):
Лучший фильм
Лучший актер (Франсуа Клюзе)
Лучшая актриса второго плана (Анн Ле Ни)
Лучший режиссер (Оливье Накаш, Эрик Толедано)
Лучший сценарий
Лучшая работа оператора
Лучший звук
Лучший монтаж

Европейская киноакадемия, 2012 год
Номинации (4):
Лучший фильм
Лучшая мужская роль (Франсуа Клюзе, Омар Си)
Лучшая работа сценариста (Оливье Накаш, Эрик Толедано)
Приз зрительских симпатий
Общее
Уникальный идентификатор : 207350508584935215809910322739666834580 (0x9BFE415E67D489129A9FA1EAA3315494)
Полное имя : D:Video1+1.2011.BDRip.1080p.mkv
Формат : Matroska
Версия формата : Version 4 / Version 2
Размер файла : 15,6 Гбайт
Продолжительность : 1 ч. 52 м.
Общий поток : 20,0 Мбит/сек
Название фильма : BDRip -- STarankov
Дата кодирования : UTC 2015-09-21 06:50:16
Программа кодирования : mkvmerge v8.2.0 ('World of Adventure') 64bit
Библиотека кодирования : libebml v1.3.1 + libmatroska v1.4.2
DURATION : 01:52:02.048000000
NUMBER_OF_FRAMES : 630192
NUMBER_OF_BYTES : 1267946372
_STATISTICS_WRITING_APP : mkvmerge v8.2.0 ('World of Adventure') 64bit
_STATISTICS_WRITING_DATE_UTC : 2015-09-21 06:50:16
_STATISTICS_TAGS : BPS DURATION NUMBER_OF_FRAMES NUMBER_OF_BYTES

Видео
Идентификатор : 1
Формат : AVC
Формат/Информация : Advanced Video Codec
Профиль формата : High@L4.1
Параметр CABAC формата : Да
Параметр ReFrames формата : 4 кадра
Идентификатор кодека : V_MPEG4/ISO/AVC
Продолжительность : 1 ч. 52 м.
Битрейт : 15,9 Мбит/сек
Ширина : 1920 пикселей
Высота : 1040 пикселей
Соотношение сторон : 1,85:1
Режим частоты кадров : Постоянный
Частота кадров : 24,000 кадра/сек
Цветовое пространство : YUV
Субдискретизация насыщенности : 4:2:0
Битовая глубина : 8 бит
Тип развёртки : Прогрессивная
Бит/(Пиксели*Кадры) : 0.332
Размер потока : 12,5 Гбайт (80%)
Библиотека кодирования : x264 core 146 r2538 121396c
Настройки программы : cabac=1 / ref=4 / deblock=1:-1:-1 / analyse=0x3:0x113 / me=umh / subme=10 / psy=1 / psy_rd=1.00:0.15 / mixed_ref=1 / me_range=32 / chroma_me=1 / trellis=2 / 8x8dct=1 / cqm=0 / deadzone=21,11 / fast_pskip=1 / chroma_qp_offset=-3 / threads=6 / lookahead_threads=1 / sliced_threads=0 / nr=0 / decimate=1 / interlaced=0 / bluray_compat=0 / constrained_intra=0 / bframes=10 / b_pyramid=2 / b_adapt=2 / b_bias=0 / direct=1 / weightb=1 / open_gop=0 / weightp=2 / keyint=230 / keyint_min=23 / scenecut=40 / intra_refresh=0 / rc_lookahead=40 / rc=crf / mbtree=0 / crf=19.3 / qcomp=0.60 / qpmin=0 / qpmax=69 / qpstep=4 / vbv_maxrate=40000 / vbv_bufsize=50000 / crf_max=0.0 / nal_hrd=none / filler=0 / ip_ratio=1.40 / pb_ratio=1.30 / aq=1:1.00
Язык : French
Default : Да
Forced : Нет
DURATION : 01:52:01.834000000
NUMBER_OF_FRAMES : 161324
NUMBER_OF_BYTES : 13711549718
_STATISTICS_WRITING_APP : mkvmerge v8.2.0 ('World of Adventure') 64bit
_STATISTICS_WRITING_DATE_UTC : 2015-09-21 06:50:16
_STATISTICS_TAGS : BPS DURATION NUMBER_OF_FRAMES NUMBER_OF_BYTES

Аудио #1
Идентификатор : 2
Формат : AC-3
Формат/Информация : Audio Coding 3
Расширение режима : CM (complete main)
Параметр Endianness формата : Big
Идентификатор кодека : A_AC3
Продолжительность : 1 ч. 52 м.
Вид битрейта : Постоянный
Битрейт : 640 Кбит/сек
Каналы : 6 каналов
Расположение каналов : Front: L C R, Side: L R, LFE
Частота : 48,0 КГц
Метод сжатия : С потерями
Размер потока : 513 Мбайт (3%)
Заголовок : DUB
Язык : Russian
Default : Да
Forced : Нет

Аудио #2
Идентификатор : 3
Формат : DTS
Формат/Информация : Digital Theater Systems
Режим : 16
Параметр Endianness формата : Big
Идентификатор кодека : A_DTS
Продолжительность : 1 ч. 52 м.
Вид битрейта : Постоянный
Битрейт : 1509 Кбит/сек
Каналы : 6 каналов
Расположение каналов : Front: L C R, Side: L R, LFE
Частота : 48,0 КГц
Битовая глубина : 16 бит
Метод сжатия : С потерями
Размер потока : 1,18 Гбайт (8%)
Заголовок : MVO
Язык : Russian
Default : Нет
Forced : Нет

Аудио #3
Идентификатор : 4
Формат : DTS
Формат/Информация : Digital Theater Systems
Режим : 16
Параметр Endianness формата : Big
Идентификатор кодека : A_DTS
Продолжительность : 1 ч. 52 м.
Вид битрейта : Постоянный
Битрейт : 1509 Кбит/сек
Каналы : 6 каналов
Расположение каналов : Front: L C R, Side: L R, LFE
Частота : 48,0 КГц
Битовая глубина : 16 бит
Метод сжатия : С потерями
Размер потока : 1,18 Гбайт (8%)
Заголовок : Original
Язык : French
Default : Нет
Forced : Нет

Текст
Идентификатор : 5
Формат : UTF-8
Идентификатор кодека : S_TEXT/UTF8
Идентификатор кодека/Информация : UTF-8 Plain Text
Заголовок : русский
Язык : Russian
Default : Нет
Forced : Нет
pb.wtf



Скачать 1+1 через торрент http://i67.fastpic.ru/big/2015/0918/89/434ed13bdc1d9a5d1654222f9302da89.jpg Скачать фильм 1+1 через торрент бесплантно в хорошем качестве Описание: Пострадавший в результате несчастного случая богатый аристократ Филипп нанимает в помощники человека, который менее всего ... 10 10 11
Info! Золотая раздача, скачанное не засчитывается.
Торрент: Зарегистрирован [2015-09-21 13:49] · скачан: 297 раз
Статус: √ проверено
Размер: 15.64 GB
Как cкачать? Как скачать 1+1 через торрент | qTorrent

% Раздел Тема Автор DL S | L
Фильмы [HD 720p, 1080p] (Хороший звук DUB, MVO) [ 5.72 GB ] 1+1 / Intouchables [2011 биография BDRip 720p by msltel] DUB MVO msltel Скачать
1 | 0
Фильмы 2011 [ 3.29 GB ] 1+1 / Intouchables [2011 биография BDRip AVC by msltel] DUB MVO msltel Скачать
1 | 0

28-11-2019 20:33  

Отключить всю рекламу на сайте

21-09-2015 18:10 1+1 Скачать торрент  

Хороший фильм.можно пересмотреть сотни разpb.wtf



22-01-2019 12:45 1+1 Скачать торрент  

Лучший, не то что эти жалкие копии.pb.wtf



    Дорогой пользователь! Огромная просьба, поблагодарите релизера, оцените раздачу и оставьте свои комментарий, если Вы скачали 1+1 через торрент бесплатно! Внесите свою лепту в развитие PiratBit!
    Комментировать посты могут только пользователи прошедшие не сложную регистрацию
    Показать сообщения:    

    1+1 через торрент
    Скачать бесплатно 1+1
    1+1 скачать торрент
    1+1 смотреть онлайн
    Cкачать фильм 1+1 бесплатно
    1+1 скачать торрент в хорошем качестве
    1+1 смотреть онлайн бесплатно в хорошем качестве


    Вы не можете начинать темы
    Вы не можете отвечать на сообщения
    Вы не можете редактировать свои сообщения
    Вы не можете удалять свои сообщения
    Вы не можете голосовать в опросах
    Вы не можете прикреплять файлы к сообщениям
    Вы можете скачивать файлы