Ссылка на приватное зеркало всего за 1$. Внимание количество ограничено!!!

OK

1+1

iTunes

мы

OK

1

WEB-DLRip

Джокер

Пифагор

Ведьмак / The Witcher сериал

iTunes

ПШазам

ОК

Оно 2

iTunes

30
pack

Вам бонус

ВАЖНО

!!Акция!!

Alien_RageХит недели

RePack

Resident Evil 21

ИГРА 18+

pack

RePack

jed

RePack

fifa19

RePack

Assassins Creed: Odyssey

RePack

NEED FOR SPEED™ PAYBACK

4 сезон

9 сезон

Бесстыжие 9 сезон

Все сериалы

все сериалы на PB.wtf

RePack

FAR CRY 5
  

Пятьдесят оттенков серого (Сэм Тейлор-Джонсон) [2015 г., мелодрама, WEB-DLRip, Дубляж "iTunes"] pb.wtf

Пятьдесят оттенков серого через торрент pb.wtf

Размер: 2.18 GB | Добавлен: 4 года 4 мес. назад | Торрент скачан:167 раз
Скачать  

11-04-2015 18:19 Пятьдесят оттенков серого Скачать торрент  

Пятьдесят оттенков серого
Год выпуска: 2015
Страна: США / Focus Features, Michael De Luca Productions, Trigger Street Productions
Жанр: мелодрама
Продолжительность: 02:05:12
Перевод: Дубляж (iTunes)

Режиссер: Сэм Тейлор-Джонсон
IMDB 4.20 (133 939)


В ролях: Джейми Дорнан, Дакота Джонсон, Люк Граймс, Виктор Расук, Элоиза Мамфорд, Марша Гей Харден, Рита Ора, Макс Мартини, Каллум Кит Ренни, Дженнифер Или

Описание: Анастейша Стил — скромная студентка, живущая вместе с близкой подругой-сокурсницей Кейт. За неделю до выпускного в университете, Анастейша, по просьбе заболевшей Кейт заменить её, берёт интервью у молодого красавца-миллиардера Кристиана Грея. Интервью складывается не очень удачно, и Анастейша не думает, что они когда-либо встретятся вновь. Неожиданно Грей появляется в хозяйственном магазине, где девушка работает продавцом. Их знакомство продолжается, и Анастейша постепенно узнаёт о тайных сексуальных увлечениях богача...

Качество: WEB-DLRip
Формат: AVI
Видео кодек: XviD
Аудио кодек: AC3
Видео: 720x304 (2.37:1), 23.976 fps, XviD build 50 ~2106 kbps avg, 0.40 bit/pixel
Аудио: 48 kHz, AC3 Dolby Digital, 3/2 (L,C,R,l,r) + LFE ch, ~384 kbps
скриншот   скриншот   скриншот   скриншот   скриншот   скриншот  

Общее
Полное имя : F:\кино\Пятьдесят оттенков серого.2015.WEB-DLRip.avi
Формат : AVI
Формат/Информация : Audio Video Interleave
Профиль формата : OpenDML
Размер файла : 2,18 Гбайт
Продолжительность : 2 ч. 5 м.
Общий поток : 2498 Кбит/сек
Программа кодирования : VirtualDubMod 1.5.10.3 | www.virtualdub-fr.org || (build 2550/release)
Библиотека кодирования : VirtualDubMod build 2550/release

Видео
Идентификатор : 0
Формат : MPEG-4 Visual
Профиль формата : Advanced Simple@L5
Параметр BVOP формата : 2
Параметр QPel формата : Нет
Параметр GMC формата : Без точки перехода
Параметр матрицы формата : Default (H.263)
Идентификатор кодека : XVID
Идентификатор кодека/Подсказка : XviD
Продолжительность : 2 ч. 5 м.
Битрейт : 2102 Кбит/сек
Ширина : 720 пикселей
Высота : 304 пикселя
Соотношение сторон : 2,35:1
Частота кадров : 23,976 кадра/сек
Цветовое пространство : YUV
Субдискретизация насыщенности : 4:2:0
Битовая глубина : 8 бит
Тип развёртки : Прогрессивная
Метод сжатия : С потерями
Бит/(Пиксели*Кадры) : 0.400
Размер потока : 1,84 Гбайт (84%)
Библиотека кодирования : XviD 1.2.1 (UTC 2008-12-04)

Аудио
Идентификатор : 1
Формат : AC-3
Формат/Информация : Audio Coding 3
Расширение режима : CM (complete main)
Параметр Endianness формата : Big
Идентификатор кодека : 2000
Продолжительность : 2 ч. 5 м.
Вид битрейта : Постоянный
Битрейт : 384 Кбит/сек
Каналы : 6 каналов
Расположение каналов : Front: L C R, Side: L R, LFE
Частота : 48,0 КГц
Битовая глубина : 16 бит
Метод сжатия : С потерями
Размер потока : 344 Мбайт (15%)
Выравнивание : Разделение по промежуткам
Продолжительность промежутка : 42 мс. (1,00 видеокадр)
Время предзагрузки промежутка : 500 мс.

pb.wtf



Скачать Пятьдесят оттенков серого через торрент http://pic1.kartinco.top/images/10/fy3cs.jpg Скачать фильм Пятьдесят оттенков серого через торрент бесплантно в хорошем качестве Описание: Анастейша Стил — скромная студентка, живущая вместе с близкой подругой-сокурсницей Кейт. За неделю до выпускного в университете, ... 7.4 10 26
Торрент: Зарегистрирован [2015-09-22 07:59] · скачан: 167 раз
Статус: √ проверено
Размер: 2.18 GB
Как cкачать? Как скачать Пятьдесят оттенков серого через торрент | qTorrent

% Раздел Тема Автор DL S | L
Ultra HD (UHD: 2K, 4K, 8K) — видео сверхвысокой чёткости [ 43.68 GB ] Пятьдесят оттенков серого / Fifty Shades of Grey [2015 BDRemux 2160p] DUB [Расширенная версия] [ BD CEE] bober100 Скачать
1 | 0
Фильмы 2015 [DVDrip, WEB-DLRip, HDrip] [ 1.46 GB ] Пятьдесят оттенков серого [2015 WEB-DLRip ] ninla Скачать
1 | 0
Фильмы [HD 720p, 1080p] (Хороший звук DUB, MVO) [ 11.84 GB ] Пятьдесят оттенков серого [2015 BDRip 1080p] Dub + Original + Sub [Расширенная версия] Seedtank Скачать
2 | 0
Фильмы 2015 [DVDrip, WEB-DLRip, HDrip] [ 2.18 GB ] Пятьдесят оттенков серого [2015 BDRip-AVC] [Расширенная версия] DUB potroks Скачать
1 | 0
Фильмы 2015 [DVDrip, WEB-DLRip, HDrip] [ 1.5 GB ] Пятьдесят оттенков серого [2015 BDRip-AVC] [Расширенная версия] DUB potroks Скачать
1 | 0
Фильмы 2015 [DVDrip, WEB-DLRip, HDrip] [ 1.41 GB ] Пятьдесят оттенков серого [2015 WEB-DLRip-AVC] ] От R.G. PiratFilms White Smoke Скачать
1 | 0
Фильмы (WEB-DL 720p, 1080p) [ 4.46 GB ] Пятьдесят оттенков серого [2015 WEB-DL 1080p] ] White Smoke Скачать
1 | 0

28-11-2019 20:33  

Отключить всю рекламу на сайте

30-04-2015 17:29 Пятьдесят оттенков серого Скачать торрент  

говноговноговноpb.wtf



    Дорогой пользователь! Огромная просьба, поблагодарите релизера, оцените раздачу и оставьте свои комментарий, если Вы скачали Пятьдесят оттенков серого через торрент бесплатно! Внесите свою лепту в развитие PiratBit!
    Комментировать посты могут только пользователи прошедшие не сложную регистрацию
    Показать сообщения:    

    Пятьдесят оттенков серого через торрент
    Скачать бесплатно Пятьдесят оттенков серого
    Пятьдесят оттенков серого скачать торрент
    Пятьдесят оттенков серого смотреть онлайн
    Cкачать фильм Пятьдесят оттенков серого бесплатно
    Пятьдесят оттенков серого скачать торрент в хорошем качестве
    Пятьдесят оттенков серого смотреть онлайн бесплатно в хорошем качестве


    Вы не можете начинать темы
    Вы не можете отвечать на сообщения
    Вы не можете редактировать свои сообщения
    Вы не можете удалять свои сообщения
    Вы не можете голосовать в опросах
    Вы не можете прикреплять файлы к сообщениям
    Вы можете скачивать файлы