Marvel's Avengers Deluxe Edition (супер цена) 159р. Внимание количество ограничено!!!

2 сезон

iTunes

iTunes

1

iTunes

iTunes

iTunes

WEBRip

iTunes

30
pack

Новость дня

ВАЖНО

!!Акция!!

Alien_RageХит недели

RePack

Horizon Zero Dawn

ИГРА 18+

pack

RePack

jed

!!Акция!!

Alien_Rage

RePack

fifa19

RePack

Assassins Creed: Odyssey

RePack

NEED FOR SPEED™ PAYBACK

4 сезон

9 сезон

Бесстыжие 9 сезон

Все сериалы

все сериалы на PB.wtf

RePack

FAR CRY 5
  

Фокус (Гленн Фикарра) [2015, США, Аргентина, драма, мелодрама, комедия, HDRip, Дубляж - Лицензия / iTunes] pb.wtf

Фокус через торрент pb.wtf

Размер: 1.37 GB | Добавлен: 4 года 11 мес. назад | Торрент скачан:587 раз
Скачать  

15-05-2015 21:57 Фокус Скачать торрент  

Фокус«Узнай в чём фокус»

Год выпуска: 2015
Страна: США, Аргентина
Жанр: драма, мелодрама, комедия, криминал
Продолжительность: 01:44:44
Перевод: Дубляж - [Лицензия / iTunes]
Субтитры: Отсутствует
Режиссер: Гленн Фикарра / Glenn Ficarra, Джон Рекуа / John Requa
В ролях:


Уилл Смит (Nicky), Марго Робби (Jess), Адриан Мартинес (Farhad), Джералд МакРэйни (Owens), Родриго Санторо (Garriga), Б.Д. Вонг (Liyuan), Бреннан Браун (Horst), Роберт Тейлор (McEwen), Дотан Бонен (Gordon), Грифф Ферст (Gareth), Стефани Онор (Janice), Дэвид Стэнфорд (Drunken Stranger)

Описание:
История об опытном мошеннике, который влюбляется в девушку, делающую первые шаги на поприще нелегального отъема средств у граждан. Отношения становятся для них проблемой, когда обнаруживается, что романтика мешает их нечестному бизнесу.

Рейтинг:
Бюджет:$50 100 000
MPAA: R - Лицам до 17 лет обязательно присутствие взрослого
Качество: HDRip
Формат: AVI
Видео кодек:XviD
Аудио кодек:AC3
Видео: XviD, 720x400 (16:9), 1476 kbps, 23,976 fps, 0,214 bpp
Аудио: AC3 / 5.1 / 48 kHz / 384 kbps / 16 bit

General
Complete name : D:\_uTorrent_\F0cus.2015.D.HDRip.1400MB.avi
Format : AVI
Format/Info : Audio Video Interleave
File size : 1.37 GiB
Duration : 1h 44mn
Overall bit rate : 1 870 Kbps
Writing application : VirtualDubMod 1.5.10.2 (build 2540/release)
Writing library : VirtualDubMod build 2540/release

Video
ID : 0
Format : MPEG-4 Visual
Format profile : Advanced Simple@L5
Format settings, BVOP : 2
Format settings, QPel : No
Format settings, GMC : No warppoints
Format settings, Matrix : Default (MPEG)
Codec ID : XVID
Codec ID/Hint : XviD
Duration : 1h 44mn
Bit rate : 1 477 Kbps
Width : 720 pixels
Height : 400 pixels
Display aspect ratio : 16:9
Frame rate : 23.976 fps
Color space : YUV
Chroma subsampling : 4:2:0
Bit depth : 8 bits
Scan type : Progressive
Compression mode : Lossy
Bits/(Pixel*Frame) : 0.214
Stream size : 1.08 GiB (79%)
Writing library : XviD 1.2.1 (UTC 2008-12-04)

Audio
ID : 1
Format : AC-3
Format/Info : Audio Coding 3
Mode extension : CM (complete main)
Codec ID : 2000
Duration : 1h 44mn
Bit rate mode : Constant
Bit rate : 384 Kbps
Channel(s) : 6 channels
Channel positions : Front: L C R, Side: L R, LFE
Sampling rate : 48.0 KHz
Bit depth : 16 bits
Compression mode : Lossy
Stream size : 288 MiB (21%)
Alignment : Split accross interleaves
Interleave, duration : 42 ms (1.00 video frame)
Interleave, preload duration : 500 ms

[/code]
pb.wtf



Скачать Фокус через торрент http://pic1.kartinco.top/images/10/w3a82.jpg Скачать фильм Фокус через торрент бесплантно в хорошем качестве Описание: История об опытном мошеннике, который влюбляется в девушку, делающую первые шаги на поприще нелегального отъема средств у ... 9.7 10 30
Торрент: Зарегистрирован [2015-09-22 08:01] · скачан: 587 раз
Статус: √ проверено
Размер: 1.37 GB
Как cкачать? Как скачать Фокус через торрент | qTorrent

% Раздел Тема Автор DL S | L
Ultra HD (UHD: 2K, 4K, 8K) — видео сверхвысокой чёткости [ 66.47 GB ] Фокус-покус / Hocus Pocus [1993 UHD BDRemux 2160p] 3xMVO+2xDVO+2xAVO bober100 Скачать
1 | 0
Фильмы [HD 720p, 1080p] (Хороший звук DUB, MVO) [ 5.75 GB ] Фокус / Focus [2015 BDRip 720p от _denis_100 / NNNB] DUB AVO + Original Eng +Sub 2xRus 3xEng _denis_100 Скачать
1 | 0
Азиатские фильмы [ 8.57 GB ] Нулевой фокус / Zero no shôten [1961 BDRip 1080p by msltel] VO msltel Скачать
1 | 0
Азиатские фильмы [ 2.75 GB ] Нулевой фокус / Zero no shôten [1961 BDRip 720p by msltel] VO msltel Скачать
1 | 0
Документальные фильмы и телепередачи [ 4 GB ] Смертельная магия / Death by Magic / Сезон: 1 / Серии: 1-8 из 8 [2018 документальный шоу фокусы WEB-DLRip] [MVO] killermax2013 Скачать
1 | 0
Документальные фильмы и телепередачи [ 13.57 GB ] Смертельная магия / Death by Magic / Сезон: 1 / Серии: 1-8 из 8 [2018 документальный шоу фокусы WEB-DL 1080p] [MVO] killermax2013 Скачать
1 | 0
Ultra HD (UHD: 2K, 4K, 8K) — видео сверхвысокой чёткости [ 23.07 GB ] Фокус / Focus [2014 UHD WEBRip 2160p] DUB + AVO [Гаврилов] sheker187 Скачать
1 | 0

28-11-2019 20:33  

Отключить всю рекламу на сайте

16-05-2015 07:16 Фокус Скачать торрент  

мне напомнил сериал виртуозы
а так фильм слабыйpb.wtf



    Дорогой пользователь! Огромная просьба, поблагодарите релизера, оцените раздачу и оставьте свои комментарий, если Вы скачали Фокус через торрент бесплатно! Внесите свою лепту в развитие PiratBit!
    Комментировать посты могут только пользователи прошедшие не сложную регистрацию
    Показать сообщения:    

    Фокус через торрент
    Скачать бесплатно Фокус
    Фокус скачать торрент
    Фокус смотреть онлайн
    Cкачать фильм Фокус бесплатно
    Фокус скачать торрент в хорошем качестве
    Фокус смотреть онлайн бесплатно в хорошем качестве


    Вы не можете начинать темы
    Вы не можете отвечать на сообщения
    Вы не можете редактировать свои сообщения
    Вы не можете удалять свои сообщения
    Вы не можете голосовать в опросах
    Вы не можете прикреплять файлы к сообщениям
    Вы можете скачивать файлы