Marvel's Avengers Deluxe Edition (супер цена) 159р. Внимание количество ограничено!!!

2 сезон

iTunes

iTunes

1

iTunes

iTunes

iTunes

WEBRip

iTunes

30
pack

Новость дня

ВАЖНО

!!Акция!!

Alien_RageХит недели

RePack

Horizon Zero Dawn

ИГРА 18+

pack

RePack

jed

!!Акция!!

Alien_Rage

RePack

fifa19

RePack

Assassins Creed: Odyssey

RePack

NEED FOR SPEED™ PAYBACK

4 сезон

9 сезон

Бесстыжие 9 сезон

Все сериалы

все сериалы на PB.wtf

RePack

FAR CRY 5
  

Фокус (Гленн Фикарра, Джон Рекуа) [2015 г., драма, мелодрама, комедия, криминал, WEB-DLRip, Дубляж - Лицензия / iTunes] pb.wtf

Фокус через торрент pb.wtf

Раздают: 1 [ 0 KB/s ]
Размер: 2.05 GB | Добавлен: 4 года 11 мес. назад | Торрент скачан:762 раза
Скачать  

13-05-2015 12:44 Фокус Скачать торрент  

скриншот  Фокус / Focus

Год выпуска: 2015
Страна: США, Аргентина
Жанр: драма, комедия, криминал

Продолжительность: 01:44:40
Перевод: Дубляж - [Лицензия / iTunes]
Режиссер: Гленн Фикарра , Джон Рекуа
В ролях: Уилл Смит (Nicky), Марго Робби (Jess), Адриан Мартинес (Farhad), Джералд МакРэйни (Owens), Родриго Санторо (Garriga), Б.Д. Вонг (Liyuan), Бреннан Браун (Horst), Роберт Тейлор (McEwen), Дотан Бонен (Gordon), Грифф Ферст (Gareth), Стефани Онор (Janice), Дэвид Стэнфорд (Drunken Stranger)
Описание:
История об опытном мошеннике, который влюбляется в девушку, делающую первые шаги на поприще нелегального отъема средств у граждан. Отношения становятся для них проблемой, когда обнаруживается, что романтика мешает их нечестному бизнесу.
Рейтинг:

MPAA: R - Лицам до 17 лет обязательно присутствие взрослого
Качество: WEB-DLRip [рип с WEB-DL 720p]
Формат: AVI
Видео кодек: XviD
Аудио кодек: AC3
Видео: XviD, 720x400 (16:9), 2022 kbps, 23,976 fps, 0,293 bpp
Аудио №1: Русский / AC3 / 5.1 / 48 kHz / 384 kbps / 16 bit
Аудио №2: Английский / AC3 / 5.1 / 48 kHz / 384 kbps / 16 bit

Код:

General
Complete name                            : E:\Films\F0kys.2015.D.WEB-DLRip.2100MB.avi
Format                                   : AVI
Format/Info                              : Audio Video Interleave
Format profile                           : OpenDML
File size                                : 2.05 GiB
Duration                                 : 1h 44mn
Overall bit rate                         : 2 809 Kbps
Writing application                      : VirtualDubMod 1.5.10.2 (build 2540/release)
Writing library                          : VirtualDubMod build 2540/release

Video
ID                                       : 0
Format                                   : MPEG-4 Visual
Format profile                           : Advanced Simple@L5
Format settings, BVOP                    : 2
Format settings, QPel                    : No
Format settings, GMC                     : No warppoints
Format settings, Matrix                  : Default (MPEG)
Codec ID                                 : XVID
Codec ID/Hint                            : XviD
Duration                                 : 1h 44mn
Bit rate                                 : 2 023 Kbps
Width                                    : 720 pixels
Height                                   : 400 pixels
Display aspect ratio                     : 16:9
Frame rate                               : 23.976 fps
Color space                              : YUV
Chroma subsampling                       : 4:2:0
Bit depth                                : 8 bits
Scan type                                : Progressive
Compression mode                         : Lossy
Bits/(Pixel*Frame)                       : 0.293
Stream size                              : 1.48 GiB (72%)
Writing library                          : XviD 1.2.1 (UTC 2008-12-04)

Audio #1
ID                                       : 1
Format                                   : AC-3
Format/Info                              : Audio Coding 3
Mode extension                           : CM (complete main)
Codec ID                                 : 2000
Duration                                 : 1h 44mn
Bit rate mode                            : Constant
Bit rate                                 : 384 Kbps
Channel(s)                               : 6 channels
Channel positions                        : Front: L C R, Side: L R, LFE
Sampling rate                            : 48.0 KHz
Bit depth                                : 16 bits
Compression mode                         : Lossy
Stream size                              : 287 MiB (14%)
Alignment                                : Split accross interleaves
Interleave, duration                     : 42 ms (1.00 video frame)
Interleave, preload duration             : 500 ms

Audio #2
ID                                       : 2
Format                                   : AC-3
Format/Info                              : Audio Coding 3
Mode extension                           : CM (complete main)
Codec ID                                 : 2000
Duration                                 : 1h 44mn
Bit rate mode                            : Constant
Bit rate                                 : 384 Kbps
Channel(s)                               : 6 channels
Channel positions                        : Front: L C R, Side: L R, LFE
Sampling rate                            : 48.0 KHz
Bit depth                                : 16 bits
Compression mode                         : Lossy
Stream size                              : 287 MiB (14%)
Alignment                                : Split accross interleaves
Interleave, duration                     : 42 ms (1.00 video frame)
Interleave, preload duration             : 500 ms

скриншот   скриншот   скриншот  


скриншот  pb.wtf



Скачать Фокус через торрент http://i4.imageban.ru/out/2015/05/13/d462ba385bc864c864a00d82ddbdd0f0.jpg Скачать фильм Фокус через торрент бесплантно в хорошем качестве Описание: История об опытном мошеннике, который влюбляется в девушку, делающую первые шаги на поприще нелегального отъема средств у ... 9.3 10 29
Info! Золотая раздача, скачанное не засчитывается.
Торрент: Зарегистрирован [2015-09-22 08:01] · скачан: 762 раз
Статус: √ проверено
Размер: 2.05 GB
Как cкачать? Как скачать Фокус через торрент | qTorrent

% Раздел Тема Автор DL S | L
Ultra HD (UHD: 2K, 4K, 8K) — видео сверхвысокой чёткости [ 66.47 GB ] Фокус-покус / Hocus Pocus [1993 UHD BDRemux 2160p] 3xMVO+2xDVO+2xAVO bober100 Скачать
2 | 1
Фильмы [HD 720p, 1080p] (Хороший звук DUB, MVO) [ 5.75 GB ] Фокус / Focus [2015 BDRip 720p от _denis_100 / NNNB] DUB AVO + Original Eng +Sub 2xRus 3xEng _denis_100 Скачать
1 | 0
Азиатские фильмы [ 8.57 GB ] Нулевой фокус / Zero no shôten [1961 BDRip 1080p by msltel] VO msltel Скачать
1 | 0
Азиатские фильмы [ 2.75 GB ] Нулевой фокус / Zero no shôten [1961 BDRip 720p by msltel] VO msltel Скачать
1 | 0
Документальные фильмы и телепередачи [ 4 GB ] Смертельная магия / Death by Magic / Сезон: 1 / Серии: 1-8 из 8 [2018 документальный шоу фокусы WEB-DLRip] [MVO] killermax2013 Скачать
1 | 0
Документальные фильмы и телепередачи [ 13.57 GB ] Смертельная магия / Death by Magic / Сезон: 1 / Серии: 1-8 из 8 [2018 документальный шоу фокусы WEB-DL 1080p] [MVO] killermax2013 Скачать
1 | 0
Ultra HD (UHD: 2K, 4K, 8K) — видео сверхвысокой чёткости [ 23.07 GB ] Фокус / Focus [2014 UHD WEBRip 2160p] DUB + AVO [Гаврилов] sheker187 Скачать
1 | 0

28-11-2019 20:33  

Отключить всю рекламу на сайте

    Дорогой пользователь! Огромная просьба, поблагодарите релизера, оцените раздачу и оставьте свои комментарий, если Вы скачали Фокус через торрент бесплатно! Внесите свою лепту в развитие PiratBit!
    Комментировать посты могут только пользователи прошедшие не сложную регистрацию
    Показать сообщения:    

    Фокус через торрент
    Скачать бесплатно Фокус
    Фокус скачать торрент
    Фокус смотреть онлайн
    Cкачать фильм Фокус бесплатно
    Фокус скачать торрент в хорошем качестве
    Фокус смотреть онлайн бесплатно в хорошем качестве


    Вы не можете начинать темы
    Вы не можете отвечать на сообщения
    Вы не можете редактировать свои сообщения
    Вы не можете удалять свои сообщения
    Вы не можете голосовать в опросах
    Вы не можете прикреплять файлы к сообщениям
    Вы можете скачивать файлы