Ссылка на приватное зеркало нашего сайта всего за 1$. Внимание количество ограничено!!!

2 сезон

iTunes

iTunes

1

iTunes

iTunes

iTunes

WEBRip

iTunes

30
pack

Вам бонус

ВАЖНО

!!Акция!!

Alien_RageХит недели

RePack

Horizon Zero Dawn

ИГРА 18+

pack

RePack

jed

!!Акция!!

Alien_Rage

RePack

fifa19

RePack

Assassins Creed: Odyssey

RePack

NEED FOR SPEED™ PAYBACK

4 сезон

9 сезон

Бесстыжие 9 сезон

Все сериалы

все сериалы на PB.wtf

RePack

FAR CRY 5
  

Восхождение Юпитер (Энди Вачовски, Лана Вачовски) [2015 г., фантастика, боевик, приключения, HDRip, Дубляж "Лицензия"] pb.wtf

Восхождение Юпитер через торрент pb.wtf

Размер: 2.15 GB | Добавлен: 5 лет назад | Торрент скачан:64 раза
Скачать  

22-04-2015 18:23 Восхождение Юпитер Скачать торрент  

Восхождение Юпитер
Год выпуска: 2015
Страна: США, Великобритания / Dune Entertainment, Village Roadshow Pictures, Warner Bros.
Жанр: фантастика, боевик, приключения
Продолжительность: 02:07:34
Перевод: Дубляж (Лицензия)

Режиссер: Энди Вачовски, Лана Вачовски

IMDB 5.90 (37 847)


В ролях: Ченнинг Татум, Мила Кунис, Шон Бин, Эдди Редмэйн, Дуглас Бут, Таппенс Мидлтон, Никки Амука-Бёрд, Кристина Коул, Николас А. Ньюман, Рамон Тикарам

Описание: Юпитер Джонс родилась под ночным небом, и все знаки предсказывали, что девочке предстоят великие свершения. Юпитер выросла и каждый день видит во сне звезды, но просыпается в жесткой реальности, где она работает уборщицей и моет туалеты. Личная жизнь Юпитер тоже оставляет желать лучшего, пока девушка не встречает Кейна. Кейн, бывший военный охотник, прибывает на Землю, чтобы отыскать Юпитер и раскрыть девушке ее истинное предназначение. Благодаря своим генетическим особенностям Юпитер становится претенденткой невероятного наследия, способного изменить равновесие во Вселенной.

Качество: HDRip
Формат: AVI
Видео кодек: XviD
Аудио кодек: AC3
Видео: 720x304 (2.37:1), 23.976 fps, XviD build 50 ~1960 kbps avg, 0.37 bit/pixel
Аудио: 48 kHz, AC3 Dolby Digital, 3/2 (L,C,R,l,r) + LFE ch, ~448 kbps
скриншот   скриншот   скриншот   скриншот   скриншот   скриншот  

Общее
Полное имя : F:\кино\Восхождение Юпитер.2015.HDRip.avi
Формат : AVI
Формат/Информация : Audio Video Interleave
Профиль формата : OpenDML
Размер файла : 2,15 Гбайт
Продолжительность : 2 ч. 7 м.
Общий поток : 2416 Кбит/сек
Программа кодирования : VirtualDubMod 1.5.10.3 | www.virtualdub-fr.org || (build 2550/release)
Библиотека кодирования : VirtualDubMod build 2550/release

Видео
Идентификатор : 0
Формат : MPEG-4 Visual
Профиль формата : Advanced Simple@L5
Параметр BVOP формата : 2
Параметр QPel формата : Нет
Параметр GMC формата : Без точки перехода
Параметр матрицы формата : Default (H.263)
Идентификатор кодека : XVID
Идентификатор кодека/Подсказка : XviD
Продолжительность : 2 ч. 7 м.
Битрейт : 1956 Кбит/сек
Ширина : 720 пикселей
Высота : 304 пикселя
Соотношение сторон : 2,35:1
Частота кадров : 23,976 кадра/сек
Цветовое пространство : YUV
Субдискретизация насыщенности : 4:2:0
Битовая глубина : 8 бит
Тип развёртки : Прогрессивная
Метод сжатия : С потерями
Бит/(Пиксели*Кадры) : 0.373
Размер потока : 1,74 Гбайт (81%)
Библиотека кодирования : XviD 1.2.1 (UTC 2008-12-04)

Аудио
Идентификатор : 1
Формат : AC-3
Формат/Информация : Audio Coding 3
Расширение режима : CM (complete main)
Параметр Endianness формата : Big
Идентификатор кодека : 2000
Продолжительность : 2 ч. 7 м.
Вид битрейта : Постоянный
Битрейт : 448 Кбит/сек
Каналы : 6 каналов
Расположение каналов : Front: L C R, Side: L R, LFE
Частота : 48,0 КГц
Битовая глубина : 16 бит
Метод сжатия : С потерями
Размер потока : 409 Мбайт (19%)
Выравнивание : Разделение по промежуткам
Продолжительность промежутка : 42 мс. (1,00 видеокадр)
Время предзагрузки промежутка : 500 мс.

pb.wtf



Скачать Восхождение Юпитер через торрент http://pic1.kartinco.top/images/10/upomn.jpg Скачать фильм Восхождение Юпитер через торрент бесплантно в хорошем качестве Описание: Юпитер Джонс родилась под ночным небом, и все знаки предсказывали, что девочке предстоят великие свершения. Юпитер выросла и ... 9 10 39
Торрент: Зарегистрирован [2015-09-22 08:12] · скачан: 64 раз
Статус: √ проверено
Размер: 2.15 GB
Как cкачать? Как скачать Восхождение Юпитер через торрент | qTorrent

% Раздел Тема Автор DL S | L
Фильмы с авторской озвучкой [ 1.46 GB ] Восхождение Юпитер / Jupiter Ascending [2015 BDRip] [AVO] killermax2013 Скачать
1 | 0
Фильмы (HD 720p, 1080p) (48-60 fps) [ 11.64 GB ] Восхождение Юпитер / Jupiter Ascending [2015 BDRip 1080p 60 fps] DUB [] bober100 Скачать
4 | 0
Ultra HD (UHD: 2K, 4K, 8K) — видео сверхвысокой чёткости [ 66.14 GB ] Восхождение Юпитер / Jupiter Ascending [2015 UHD BDRemux 2160p] 2xAVO+2xDUB bober100 Скачать
2 | 0
Ultra HD (UHD: 2K, 4K, 8K) — видео сверхвысокой чёткости [ 77.56 GB ] Восхождение Юпитер / Jupiter Ascending [2015 UHD Blu-ray 2160p] - [] sheker187 Скачать
1 | 0
3D Фильмы [ 16.83 GB ] Восхождение Юпитер [2015 BDrip 1080p] OverUnder / Вертикальная стереопара serega768 Скачать
1 | 1
Фильмы 2015 [DVDrip, WEB-DLRip, HDrip] [ 1.46 GB ] Восхождение Юпитер [2015 WEB-DLRip] ] White Smoke Скачать
1 | 0
Фильмы [HD 720p, 1080p] (Хороший звук DUB, MVO) [ 4.37 GB ] Восхождение Юпитер [2015 BDRip 720p] DUB potroks Скачать
3 | 0


Последний раз редактировалось: coc900 (2015-05-10 18:15), всего редактировалось 1 раз

28-11-2019 20:33  

Отключить всю рекламу на сайте

10-05-2015 18:13 Восхождение Юпитер Скачать торрент  

Релиз обновлен!Просьба перекачать торрент файл! pb.wtf



    Дорогой пользователь! Огромная просьба, поблагодарите релизера, оцените раздачу и оставьте свои комментарий, если Вы скачали Восхождение Юпитер через торрент бесплатно! Внесите свою лепту в развитие PiratBit!
    Комментировать посты могут только пользователи прошедшие не сложную регистрацию
    Показать сообщения:    

    Восхождение Юпитер через торрент
    Скачать бесплатно Восхождение Юпитер
    Восхождение Юпитер скачать торрент
    Восхождение Юпитер смотреть онлайн
    Cкачать фильм Восхождение Юпитер бесплатно
    Восхождение Юпитер скачать торрент в хорошем качестве
    Восхождение Юпитер смотреть онлайн бесплатно в хорошем качестве


    Вы не можете начинать темы
    Вы не можете отвечать на сообщения
    Вы не можете редактировать свои сообщения
    Вы не можете удалять свои сообщения
    Вы не можете голосовать в опросах
    Вы не можете прикреплять файлы к сообщениям
    Вы можете скачивать файлы