Ссылка на приватное зеркало всего за 1$. Внимание количество ограничено!!!

OK

1+1

iTunes

мы

OK

1

WEB-DLRip

Джокер

Пифагор

Ведьмак / The Witcher сериал

iTunes

ПШазам

ОК

Оно 2

iTunes

30
pack

Вам бонус

ВАЖНО

!!Акция!!

Alien_RageХит недели

RePack

Resident Evil 21

ИГРА 18+

pack

RePack

jed

RePack

fifa19

RePack

Assassins Creed: Odyssey

RePack

NEED FOR SPEED™ PAYBACK

4 сезон

9 сезон

Бесстыжие 9 сезон

Все сериалы

все сериалы на PB.wtf

RePack

FAR CRY 5
  

Восхождение Юпитер (Энди Вачовски, Лана Вачовски) [2015 г., Фантастика, фэнтези, боевик, приключения, HDRip, Дубляж] pb.wtf

Восхождение Юпитер через торрент pb.wtf

Раздают: 1 [ 0 KB/s ]
Размер: 1.46 GB | Добавлен: 4 года 4 мес. назад | Торрент скачан:669 раз
Скачать  

05-05-2015 11:17 Восхождение Юпитер Скачать торрент  

Восхождение Юпитер
«Expand your universe»
Год выпуска: 2015
Выпущено:: США, Aaron Sims Company, Village Roadshow Pictures, Warner Bros. Pictures
Жанр: Фантастика, фэнтези, боевик, приключения
Длительность: 02:07:32
Перевод: Дублированный [Цифровая лицензия iTunes]
Субтитры: Отсутствуют
Режиссер:Энди Вачовски, Лана Вачовски
В ролях:
Ченнинг Татум, Мила Кунис, Шон Бин, Эдди Редмэйн, Дуглас Бут, Таппенс Мидлтон, Никки Амука-Бёрд, Кристина Коул, Николас А. Ньюман, Рамон Тикарам, Эрион Бакаре, Мария Дойл Кеннеди, Фрог Стоун, Дэвид Аджала, Ду На Пэ, Гугу Мбата-Роу, Эдвард Хогг, Тим Пиготт-Смит, Джеймс Д`Арси, Джереми Свифт
Описание:
Юпитер Джонс родилась под ночным небом, и все знаки предсказывали, что девочке предстоят великие свершения. Юпитер выросла и каждый день видит во сне звезды, но просыпается в жесткой реальности, где она работает уборщицей и моет туалеты. Личная жизнь Юпитер тоже оставляет желать лучшего, пока девушка не встречает Кейна. Кейн, бывший военный охотник, прибывает на Землю, чтобы отыскать Юпитер и раскрыть девушке ее истинное предназначение. Благодаря своим генетическим особенностям Юпитер становится претенденткой невероятного наследия, способного изменить равновесие во Вселенной.Бюджет: $176 000 000
Сборы в США: $47 375 327
Сборы в мире: + $134 500 000 = $181 875 327
Сборы в России: $9 227 900

Зрители: Россия 2.11 млн
Премьера (мир): 27 января 2015
Премьера (РФ): 5 февраля 2015, «Каро-Премьер»

Релиз на DVD: 14 мая 2015, «CP Дистрибуция»
Релиз на Blu-Ray: 14 мая 2015, «CP Дистрибуция»
MPAA: PG-13 - Детям до 13 лет просмотр не желателен
Возростное ограничение: 12+
Рейтинг:

Качество: HDRip
Формат: AVI
Видео кодек: XviD
Аудио кодек: AC3
Видео: 720x304, 1262 kbps, 23,976 fps, 0.240
Аудио#1: Русский / 6 ch / 48 kHz / 384 kbps / 16 bit - AC3









Общее
Полное имя : D:\uTorrent\B0Cx0zhdeHie.Up1teP.2015.HDRip.1.46Gb.avi
Формат : AVI
Формат/Информация : Audio Video Interleave
Размер файла : 1,46 Гбайт
Продолжительность : 2 ч. 7 м.
Общий поток : 1639 Кбит/сек
Программа кодирования : VirtualDubMod 1.5.10.3 | www.virtualdub-fr.org || (build 2550/release)
Библиотека кодирования : VirtualDubMod build 2550/release

Видео
Идентификатор : 0
Формат : MPEG-4 Visual
Профиль формата : Advanced Simple@L5
Параметр BVOP формата : 2
Параметр QPel формата : Нет
Параметр GMC формата : Без точки перехода
Параметр матрицы формата : Default (MPEG)
Идентификатор кодека : XVID
Идентификатор кодека/Подсказка : XviD
Продолжительность : 2 ч. 7 м.
Продолжительность оригинала : 36 м.
Битрейт : 1262 Кбит/сек
Ширина : 720 пикселей
Высота : 304 пикселя
Соотношение сторон : 2,35:1
Частота кадров : 23,976 кадра/сек
Цветовое пространство : YUV
Субдискретизация насыщенности : 4:2:0
Битовая глубина : 8 бит
Тип развёртки : Прогрессивная
Метод сжатия : С потерями
Бит/(Пиксели*Кадры) : 0.240
Размер потока : 329 Мбайт (22%)
Библиотека кодирования : XviD 1.2.1 (UTC 2008-12-04)

Аудио
Идентификатор : 1
Формат : AC-3
Формат/Информация : Audio Coding 3
Расширение режима : CM (complete main)
Параметр Endianness формата : Big
Идентификатор кодека : 2000
Продолжительность : 2 ч. 7 м.
Продолжительность оригинала : 36 м.
Вид битрейта : Постоянный
Битрейт : 384 Кбит/сек
Каналы : 6 каналов
Расположение каналов : Front: L C R, Side: L R, LFE
Частота : 48,0 КГц
Битовая глубина : 16 бит
Метод сжатия : С потерями
Задержка видео : 12 мс.
Размер потока : 100 Мбайт (7%)
Выравнивание : Разделение по промежуткам
Продолжительность промежутка : 42 мс. (1,00 видеокадр)
Время предзагрузки промежутка : 500 мс.

Приятного просмотра! Не забывайте говорить спасибо!!!
pb.wtf



Скачать Восхождение Юпитер через торрент http://i58.fastpic.ru/big/2015/0323/3a/210b8c17dbe1fad7546b47282c74263a.png Скачать фильм Восхождение Юпитер через торрент бесплантно в хорошем качестве Описание: Юпитер Джонс родилась под ночным небом, и все знаки предсказывали, что девочке предстоят великие свершения. Юпитер выросла и ... 9.4 10 23
Торрент: Зарегистрирован [2015-09-22 08:15] · скачан: 669 раз
Статус: √ проверено
Размер: 1.46 GB
Как cкачать? Как скачать Восхождение Юпитер через торрент | qTorrent

% Раздел Тема Автор DL S | L
Фильмы с авторской озвучкой [ 1.46 GB ] Восхождение Юпитер / Jupiter Ascending [2015 BDRip] [AVO] killermax2013 Скачать
2 | 0
Фильмы (HD 720p, 1080p) (48-60 fps) [ 11.64 GB ] Восхождение Юпитер / Jupiter Ascending [2015 BDRip 1080p 60 fps] DUB [] bober100 Скачать
2 | 0
Ultra HD (UHD: 2K, 4K, 8K) — видео сверхвысокой чёткости [ 66.14 GB ] Восхождение Юпитер / Jupiter Ascending [2015 UHD BDRemux 2160p] 2xAVO+2xDUB bober100 Скачать
1 | 0
Ultra HD (UHD: 2K, 4K, 8K) — видео сверхвысокой чёткости [ 77.56 GB ] Восхождение Юпитер / Jupiter Ascending [2015 UHD Blu-ray 2160p] - [] sheker187 Скачать
1 | 0
3D Фильмы [ 16.83 GB ] Восхождение Юпитер [2015 BDrip 1080p] OverUnder / Вертикальная стереопара serega768 Скачать
1 | 0
Фильмы 2015 [DVDrip, WEB-DLRip, HDrip] [ 1.46 GB ] Восхождение Юпитер [2015 WEB-DLRip] ] White Smoke Скачать
1 | 0
Фильмы [HD 720p, 1080p] (Хороший звук DUB, MVO) [ 4.37 GB ] Восхождение Юпитер [2015 BDRip 720p] DUB potroks Скачать
2 | 0


Последний раз редактировалось: _Fenixx_ни мужик ни баба (2015-05-06 14:23), всего редактировалось 1 раз

28-11-2019 20:33  

Отключить всю рекламу на сайте

06-05-2015 08:44 Восхождение Юпитер Скачать торрент  

Цитата:

Качество: HDRip

Цитата:

Видео: 1280x536 (2,40:1), 5477 kbps

м?
pb.wtf



06-05-2015 20:11 Восхождение Юпитер Скачать торрент  

Рейтинг IMDb - 5,7. Исправьтеpb.wtf



    Дорогой пользователь! Огромная просьба, поблагодарите релизера, оцените раздачу и оставьте свои комментарий, если Вы скачали Восхождение Юпитер через торрент бесплатно! Внесите свою лепту в развитие PiratBit!
    Комментировать посты могут только пользователи прошедшие не сложную регистрацию
    Показать сообщения:    

    Восхождение Юпитер через торрент
    Скачать бесплатно Восхождение Юпитер
    Восхождение Юпитер скачать торрент
    Восхождение Юпитер смотреть онлайн
    Cкачать фильм Восхождение Юпитер бесплатно
    Восхождение Юпитер скачать торрент в хорошем качестве
    Восхождение Юпитер смотреть онлайн бесплатно в хорошем качестве


    Вы не можете начинать темы
    Вы не можете отвечать на сообщения
    Вы не можете редактировать свои сообщения
    Вы не можете удалять свои сообщения
    Вы не можете голосовать в опросах
    Вы не можете прикреплять файлы к сообщениям
    Вы можете скачивать файлы