новый адрес
Мега распродажа FORZA HORIZON 4 ULTIMATE+ВСЕ DLC+ОНЛАЙН всего за 499р. 349 руб. (супер цена). Внимание количество ограничено!!!

iTunes

1+1

iTunes

мы

iTunes

1

iTunes

Чернобыль

iTunes

Ральф против интернета

Лицензия

ПШазам

Лицензия

Игра престолов

Лицензия

30
pack

ВАЖНО

!!Акция!!

Alien_RageХит недели

RePack

Resident Evil 21

ИГРА 18+

pack

RePack

Metro:Exodus

!!Акция!!

Alien_Rage

RePack

fifa19

RePack

Assassins Creed: Odyssey

RePack

NEED FOR SPEED™ PAYBACK

3 сезон

9 сезон

Бесстыжие 9 сезон

Все сериалы

все сериалы на PB.wtf

RePack

FAR CRY 5
Ребята, катастрофически не хватает 1900р. для оплаты серверов за Октябрь (всвязи с блокировками трафик упал в 3 раза), 1-2р., выручайте.
  

А у нас была тишина... (Владимир Шамшурин) [1977, военный, SATRip от AVP Studio] pb.wtf

А у нас была тишина... через торрент pb.wtf

Размер: 1.19 GB | Добавлен: 4 года 1 мес. назад | Торрент скачан:9 раз
Скачать  

22-09-2015 09:20 А у нас была тишина... Скачать торрент  

А у нас была тишина...
Страна: СССР
Производство:Мосфильм

Жанр: военный
Год выпуска: 1977
Продолжительность: 01:22:49

Перевод: Не требуется
Cубтитры: нет
Оригинальная аудиодорожка: русский

Режиссер: Владимир Шамшурин

В ролях:
Алексей Черствов, Тамара Сёмина, Любовь Соколова, Римма Маркова, Елизавета Никищихина, Светлана Пенкина, Елена Максимова, Елена Драпеко, Светлана Старикова, Юрий Чулюкин, Анатолий (Отто) Солоницын, Валерий Квитка, Даниил Нетребин, Владимир Гаев, Екатерина Воронина, Андрей Экономцев, Валентин Карманов, Оксана Попова (II), Аня Матвеева, Юля Дрюлина...
Полный список актёров

Описание:
Время действия фильма - 1944-1945 годы. История, рассказанная по детским впечатлениям уже взрослого человека, высвечивает детали и образы, раскрывающие суть происходящих событий в северном городке Заозерье, где люди продолжали жить, любить, плакать, петь и ждать вестей с фронта.

Источник: DVB
Качество видео: SATRip
Формат видео: AVI

Видео: 704x320 (2,2:1), 25 fps, XviD ~ 1848 kbps avg, 0.328 bit/pixel
Аудио: 48 kHz, Dolby Digital AC3 2.0, 192 kbps

Раздача от:
Общее
Полное имя : A.u.nas.byla.tishina.1977.SATRip_[New-team]_by_AVP_Studio.avi
Формат : AVI
Формат/Информация : Audio Video Interleave
Размер файла : 1,19 Гбайт
Продолжительность : 1 ч. 22 м.
Общий поток : 2051 Кбит/сек
Режиссёр : SATrip by Animat
Программа кодирования : VirtualDubModRus 1.5.10.2 (build 2542/release)
Библиотека кодирования : VirtualDubMod build 2542/release

Видео
Идентификатор : 0
Формат : MPEG-4 Visual
Профиль формата : Advanced Simple@L5
Параметр BVOP формата : 2
Параметр QPel формата : Нет
Параметр GMC формата : Без точки перехода
Параметр матрицы формата : Default (MPEG)
Режим смешивания : Сжатый битовый поток
Идентификатор кодека : XVID
Идентификатор кодека/Подсказка : XviD
Продолжительность : 1 ч. 22 м.
Битрейт : 1849 Кбит/сек
Ширина : 704 пикселя
Высота : 320 пикселей
Соотношение сторон : 2,2:1
Частота кадров : 25,000 кадров/сек
Цветовое пространство : YUV
Субдискретизация насыщенности : 4:2:0
Битовая глубина : 8 бит
Тип развёртки : Прогрессивная
Метод сжатия : С потерями
Бит/(Пиксели*Кадры) : 0.328
Размер потока : 1,07 Гбайт (90%)
Библиотека кодирования : XviD 73

Аудио
Идентификатор : 1
Формат : AC-3
Формат/Информация : Audio Coding 3
Профиль формата : Dolby Digital
Расширение режима : CM (complete main)
Параметр Endianness формата : Big
Идентификатор кодека : 2000
Продолжительность : 1 ч. 22 м.
Вид битрейта : Постоянный
Битрейт : 192 Кбит/сек
Каналы : 2 канала
Расположение каналов : Front: L R
Частота : 48,0 КГц
Метод сжатия : С потерями
Задержка видео : 8 мс.
Размер потока : 114 Мбайт (9%)
Выравнивание : Разделение по промежуткам
Продолжительность промежутка : 40 мс. (1,00 видеокадр)
Время предзагрузки промежутка : 500 мс
pb.wtf



Скачать А у нас была тишина... через торрент http://i058.radikal.ru/1509/0e/58c5efcb4a54.png Скачать фильм А у нас была тишина... через торрент бесплантно в хорошем качестве Описание:Время действия фильма - 1944-1945 годы. История, рассказанная по детским впечатлениям уже взрослого человека, высвечивает детали и ... 10 10 1
Info! Золотая раздача, скачанное не засчитывается.
Торрент: Зарегистрирован [2015-09-22 09:20] · скачан: 9 раз
Статус: √ проверено
Размер: 1.19 GB
Как cкачать? Как скачать А у нас была тишина... через торрент | qTorrent

% Раздел Тема Автор DL S | L
Кино СССР [ 1.09 GB ] А у нас была тишина... [1977 военный SATRip-AVC от AVP Studio] AVP Studio Скачать
1 | 0
Кино СССР [ 745 MB ] А у нас была тишина... [1977 военный SATRip от AVP Studio] AVP Studio Скачать
1 | 0


>> Регистрируемся здесь <<






Отзывы и комментарии о схеме читаем и пишем здесь: ---> Отзывы и комментарии о схеме

Новые благодарочки в телеграм довольных пользователей:
скриншот   скриншот   скриншот   скриншот   скриншот
    Дорогой пользователь! Огромная просьба, поблагодарите релизера, оцените раздачу и оставьте свои комментарий, если Вы скачали А у нас была тишина... через торрент бесплатно! Внесите свою лепту в развитие PiratBit!
    Комментировать посты могут только пользователи прошедшие не сложную регистрацию
    Показать сообщения:    

    А у нас была тишина... через торрент
    Скачать бесплатно А у нас была тишина...
    А у нас была тишина... скачать торрент
    А у нас была тишина... смотреть онлайн
    Cкачать фильм А у нас была тишина... бесплатно
    А у нас была тишина... скачать торрент в хорошем качестве
    А у нас была тишина... смотреть онлайн бесплатно в хорошем качестве


    Вы не можете начинать темы
    Вы не можете отвечать на сообщения
    Вы не можете редактировать свои сообщения
    Вы не можете удалять свои сообщения
    Вы не можете голосовать в опросах
    Вы не можете прикреплять файлы к сообщениям
    Вы можете скачивать файлы