Ссылка на приватное зеркало всего за 1$. Внимание количество ограничено!!!

OK

1+1

iTunes

мы

OK

1

WEB-DLRip

Джокер

Пифагор

Ведьмак / The Witcher сериал

iTunes

ПШазам

ОК

Оно 2

iTunes

30
pack

Вам бонус

ВАЖНО

!!Акция!!

Alien_RageХит недели

RePack

Resident Evil 21

ИГРА 18+

pack

RePack

jed

RePack

fifa19

RePack

Assassins Creed: Odyssey

RePack

NEED FOR SPEED™ PAYBACK

4 сезон

9 сезон

Бесстыжие 9 сезон

Все сериалы

все сериалы на PB.wtf

RePack

FAR CRY 5
  

Дальняя дорога (Джордж Тиллман мл. ) [2015, драма, мелодрама, HDRip] DUB Лицензия [iTunes] pb.wtf

Дальняя дорога через торрент pb.wtf

Размер: 1.46 GB | Добавлен: 4 года 6 мес. назад | Торрент скачан:843 раза
Скачать  

08-07-2015 20:02 Дальняя дорога Скачать торрент  

Дальняя дорога

Год выпуска: 2015
Страна: США
Жанр: драма, мелодрама
Продолжительность: 02:08:18
Перевод: Дубляж - [Лицензия] [iTunes]
Режиссер: Джордж Тиллман мл.
В ролях: Скотт Иствуд (Luke Collins), Бритт Робертсон (Sophia Danko), Алан Алда (Ira Levinson), Джек Хьюстон (Young Ira), Уна Чаплин (Young Ruth), Мелисса Бенойст (Marcia), Лолита Давидович (Kate Collins), Элеа Оберон (Mrs. Pfeffer), Кейт Форбс (Ira's Mother), Тьяго Риани (Luiz), Дэнни Винсон (Larry Till), Хейли Ловитт (Rodeo Girl / Dancer)
Описание:
Люк - экс-чемпион по родео, раздумывающий над возвращением в спорт. София - выпускница колледжа, получившая заманчивое предложение о работе в сфере искусства в Нью-Йорке. В то время как молодые люди пытаются сделать нелегкий выбор между чувствами и мечтами, жизнь сталкивает их со стариком Айрой. Воспоминания нового друга о его полувековых отношениях с женой вдохновляют Софию и Люка на главные решения в их жизни. Два поколения, две истории, вечная любовь.
Рейтинг:

MPAA: PG-13 - Детям до 13 лет просмотр не желателен
Качество: HDRip
Формат: AVI
Видео кодек: XviD
Аудио кодек: AC3
Видео: XviD, 720x304 (2.35:1), 1169 kbps, 23,976 fps, 0,223 bpp
Аудио: AC3 / 5.1 / 48 kHz / 384 kbps / 16 bit

Код:

General
Complete name                            : D:\Торенты\The.Longest.Ride.2015.D.HDRip.1.45GB.avi
Format                                   : AVI
Format/Info                              : Audio Video Interleave
File size                                : 1.46 GiB
Duration                                 : 2h 8mn
Overall bit rate                         : 1 626 Kbps
Writing application                      : VirtualDubMod 1.5.10.3 | www.virtualdub-fr.org || (build 2550/release)
Writing library                          : VirtualDubMod build 2550/release

Video
ID                                       : 0
Format                                   : MPEG-4 Visual
Format profile                           : Advanced Simple@L5
Format settings, BVOP                    : 2
Format settings, QPel                    : No
Format settings, GMC                     : No warppoints
Format settings, Matrix                  : Default (MPEG)
Muxing mode                              : Packed bitstream
Codec ID                                 : XVID
Codec ID/Hint                            : XviD
Duration                                 : 2h 8mn
Bit rate                                 : 1 169 Kbps
Width                                    : 720 pixels
Height                                   : 304 pixels
Display aspect ratio                     : 2.35:1
Frame rate                               : 23.976 fps
Color space                              : YUV
Chroma subsampling                       : 4:2:0
Bit depth                                : 8 bits
Scan type                                : Progressive
Compression mode                         : Lossy
Bits/(Pixel*Frame)                       : 0.223
Stream size                              : 1.05 GiB (72%)
Writing library                          : XviD 1.2.1 (UTC 2008-12-04)

Audio
ID                                       : 1
Format                                   : AC-3
Format/Info                              : Audio Coding 3
Mode extension                           : CM (complete main)
Codec ID                                 : 2000
Duration                                 : 2h 8mn
Bit rate mode                            : Constant
Bit rate                                 : 384 Kbps
Channel(s)                               : 6 channels
Channel positions                        : Front: L C R, Side: L R, LFE
Sampling rate                            : 48.0 KHz
Bit depth                                : 16 bits
Compression mode                         : Lossy
Stream size                              : 352 MiB (24%)
Alignment                                : Split accross interleaves

pb.wtf



Скачать Дальняя дорога через торрент http://i5.imageban.ru/out/2015/07/08/28dd5e630c7709cd94d2071b47fa1e6d.jpg Скачать фильм Дальняя дорога через торрент бесплантно в хорошем качестве Описание: Люк - экс-чемпион по родео, раздумывающий над возвращением в спорт. София - выпускница колледжа, получившая заманчивое ... 10 10 30
Info! Золотая раздача, скачанное не засчитывается.
Торрент: Зарегистрирован [2015-07-08 20:02] · скачан: 843 раз
Статус: √ проверено
Размер: 1.46 GB
Как cкачать? Как скачать Дальняя дорога через торрент | qTorrent

% Раздел Тема Автор DL S | L
Сборники отечественного шансона [ 677 MB ] VA- Лучший Хит. Дорога Дальняя 15 2017 / MP3 / 256 kbps / Шансон Бумер Скачать
1 | 0
Сборники отечественного шансона [ 677 MB ] VA- Лучший Хит. Дорога Дальняя 14 2017 / MP3 / 256 kbps / Шансон Бумер Скачать
1 | 0
Сборники отечественного шансона [ 671 MB ] VA - Летний хит. Дорога дальняя 13 2017 / MP3 / 256 kbps / Шансон bober100 Скачать
1 | 0
Сборники отечественного шансона [ 671 MB ] VA- Дорога дальняя: Летний хит 12 2017 / MP3 / 256 kbps / Шансон Бумер Скачать
1 | 0
Сборники отечественного шансона [ 671 MB ] VA - Летний хит. Дорога дальняя 9 2017 / MP3 / 256 kbps / Шансон bober100 Скачать
1 | 0
Сборники отечественного шансона [ 671 MB ] VA - Летний хит. Дорога дальняя 8 2017 / MP3 / 256 kbps / Шансон bober100 Скачать
1 | 0
Сборники отечественного шансона [ 680 MB ] VA - Лучший Хит. Дорога Дальняя 2016 / MP3 / 256 kbps / Шансон bober100 Скачать
1 | 0

28-11-2019 20:33  

Отключить всю рекламу на сайте

12-07-2015 06:21 Дальняя дорога Скачать торрент  

Приятный фильм для просмотра с девушкой, супругой...pb.wtf



    Дорогой пользователь! Огромная просьба, поблагодарите релизера, оцените раздачу и оставьте свои комментарий, если Вы скачали Дальняя дорога через торрент бесплатно! Внесите свою лепту в развитие PiratBit!
    Комментировать посты могут только пользователи прошедшие не сложную регистрацию
    Показать сообщения:    

    Дальняя дорога через торрент
    Скачать бесплатно Дальняя дорога
    Дальняя дорога скачать торрент
    Дальняя дорога смотреть онлайн
    Cкачать фильм Дальняя дорога бесплатно
    Дальняя дорога скачать торрент в хорошем качестве
    Дальняя дорога смотреть онлайн бесплатно в хорошем качестве


    Вы не можете начинать темы
    Вы не можете отвечать на сообщения
    Вы не можете редактировать свои сообщения
    Вы не можете удалять свои сообщения
    Вы не можете голосовать в опросах
    Вы не можете прикреплять файлы к сообщениям
    Вы можете скачивать файлы