Ссылка на приватное зеркало всего за 1$. Внимание количество ограничено!!!

OK

1+1

iTunes

мы

OK

1

WEB-DLRip

Джокер

Пифагор

Ведьмак / The Witcher сериал

iTunes

ПШазам

ОК

Оно 2

iTunes

30
pack

Вам бонус

ВАЖНО

!!Акция!!

Alien_RageХит недели

RePack

Resident Evil 21

ИГРА 18+

pack

RePack

jed

RePack

fifa19

RePack

Assassins Creed: Odyssey

RePack

NEED FOR SPEED™ PAYBACK

4 сезон

9 сезон

Бесстыжие 9 сезон

Все сериалы

все сериалы на PB.wtf

RePack

FAR CRY 5
  

Дальняя дорога (Джордж Тиллман мл.) [2015 г., драма, мелодрама, HDRip, Дубляж "iTunes"] pb.wtf

Дальняя дорога через торрент pb.wtf

Качают: 1 [ 0 KB/s ]
Размер: 2.17 GB | Добавлен: 4 года 6 мес. назад | Торрент скачан:122 раза
Скачать  

10-07-2015 17:44 Дальняя дорога Скачать торрент  

Дальняя дорога
Год выпуска: 2015
Страна: США / Fox 2000 Pictures, Temple Hill Entertainment
Жанр: драма, мелодрама
Продолжительность: 02:08:20
Перевод: Дубляж (iTunes)

Режиссер: Джордж Тиллман мл.

IMDB 7.20 (10 957)


В ролях: Скотт Иствуд, Бритт Робертсон, Алан Алда, Джек Хьюстон, Уна Чаплин, Мелисса Бенойст, Лолита Давидович, Элеа Оберон, Кейт Форбс, Тьяго Риани

Описание: Люк — экс-чемпион по родео, раздумывающий над возвращением в спорт. София — выпускница колледжа, получившая заманчивое предложение о работе в сфере искусства в Нью-Йорке. В то время как молодые люди пытаются сделать нелегкий выбор между чувствами и мечтами, жизнь сталкивает их со стариком Айрой. Воспоминания нового друга о его полувековых отношениях с женой вдохновляют Софию и Люка на главные решения в их жизни. Два поколения, две истории, вечная любовь.

Качество: HDRip
Формат: AVI
Видео кодек: XviD
Аудио кодек: AC3
Видео: 720x304 (2.37:1), 23.976 fps, XviD build 50 ~2027 kbps avg, 0.39 bit/pixel
Аудио: 48 kHz, AC3 Dolby Digital, 3/2 (L,C,R,l,r) + LFE ch, ~384 kbps
скриншот   скриншот   скриншот   скриншот   скриншот   скриншот  

Общее
Полное имя : F:\кино\Дальняя дорога.2015.HDRip.avi
Формат : AVI
Формат/Информация : Audio Video Interleave
Профиль формата : OpenDML
Размер файла : 2,17 Гбайт
Продолжительность : 2 ч. 8 м.
Общий поток : 2418 Кбит/сек
Программа кодирования : VirtualDubMod 1.5.10.3 | www.virtualdub-fr.org || (build 2550/release)
Библиотека кодирования : VirtualDubMod build 2550/release

Видео
Идентификатор : 0
Формат : MPEG-4 Visual
Профиль формата : Advanced Simple@L5
Параметр BVOP формата : 3
Параметр QPel формата : Да
Параметр GMC формата : 3 точки перехода
Параметр матрицы формата : Default (H.263)
Идентификатор кодека : XVID
Идентификатор кодека/Подсказка : XviD
Продолжительность : 2 ч. 8 м.
Битрейт : 2022 Кбит/сек
Ширина : 720 пикселей
Высота : 304 пикселя
Соотношение сторон : 2,35:1
Частота кадров : 23,976 кадра/сек
Цветовое пространство : YUV
Субдискретизация насыщенности : 4:2:0
Битовая глубина : 8 бит
Тип развёртки : Прогрессивная
Метод сжатия : С потерями
Бит/(Пиксели*Кадры) : 0.385
Размер потока : 1,81 Гбайт (84%)
Библиотека кодирования : XviD 1.2.1 (UTC 2008-12-04)

Аудио
Идентификатор : 1
Формат : AC-3
Формат/Информация : Audio Coding 3
Расширение режима : CM (complete main)
Параметр Endianness формата : Big
Идентификатор кодека : 2000
Продолжительность : 2 ч. 8 м.
Вид битрейта : Постоянный
Битрейт : 384 Кбит/сек
Каналы : 6 каналов
Расположение каналов : Front: L C R, Side: L R, LFE
Частота : 48,0 КГц
Метод сжатия : С потерями
Размер потока : 352 Мбайт (16%)
Выравнивание : Разделение по промежуткам
Продолжительность промежутка : 42 мс. (1,00 видеокадр)
Время предзагрузки промежутка : 500 мс.

pb.wtf



Скачать Дальняя дорога через торрент http://pic1.kartinco.top/images/10/mpayt.jpg Скачать фильм Дальняя дорога через торрент бесплантно в хорошем качестве Описание: Люк — экс-чемпион по родео, раздумывающий над возвращением в спорт. София — выпускница колледжа, получившая заманчивое ... 8.2 10 5
Торрент: Зарегистрирован [2015-07-10 17:44] · скачан: 122 раз
Статус: √ проверено
Размер: 2.17 GB
Как cкачать? Как скачать Дальняя дорога через торрент | qTorrent

% Раздел Тема Автор DL S | L
Сборники отечественного шансона [ 677 MB ] VA- Лучший Хит. Дорога Дальняя 15 2017 / MP3 / 256 kbps / Шансон Бумер Скачать
1 | 0
Сборники отечественного шансона [ 677 MB ] VA- Лучший Хит. Дорога Дальняя 14 2017 / MP3 / 256 kbps / Шансон Бумер Скачать
1 | 0
Сборники отечественного шансона [ 671 MB ] VA - Летний хит. Дорога дальняя 13 2017 / MP3 / 256 kbps / Шансон bober100 Скачать
1 | 0
Сборники отечественного шансона [ 671 MB ] VA- Дорога дальняя: Летний хит 12 2017 / MP3 / 256 kbps / Шансон Бумер Скачать
1 | 0
Сборники отечественного шансона [ 671 MB ] VA - Летний хит. Дорога дальняя 9 2017 / MP3 / 256 kbps / Шансон bober100 Скачать
1 | 0
Сборники отечественного шансона [ 671 MB ] VA - Летний хит. Дорога дальняя 8 2017 / MP3 / 256 kbps / Шансон bober100 Скачать
1 | 0
Сборники отечественного шансона [ 680 MB ] VA - Лучший Хит. Дорога Дальняя 2016 / MP3 / 256 kbps / Шансон bober100 Скачать
1 | 0

28-11-2019 20:33  

Отключить всю рекламу на сайте

    Дорогой пользователь! Огромная просьба, поблагодарите релизера, оцените раздачу и оставьте свои комментарий, если Вы скачали Дальняя дорога через торрент бесплатно! Внесите свою лепту в развитие PiratBit!
    Комментировать посты могут только пользователи прошедшие не сложную регистрацию
    Показать сообщения:    

    Дальняя дорога через торрент
    Скачать бесплатно Дальняя дорога
    Дальняя дорога скачать торрент
    Дальняя дорога смотреть онлайн
    Cкачать фильм Дальняя дорога бесплатно
    Дальняя дорога скачать торрент в хорошем качестве
    Дальняя дорога смотреть онлайн бесплатно в хорошем качестве


    Вы не можете начинать темы
    Вы не можете отвечать на сообщения
    Вы не можете редактировать свои сообщения
    Вы не можете удалять свои сообщения
    Вы не можете голосовать в опросах
    Вы не можете прикреплять файлы к сообщениям
    Вы можете скачивать файлы