новый адрес
Ссылка на приватное зеркало всего за 1$. Внимание количество ограничено!!!

iTunes

1+1

iTunes

мы

iTunes

1

iTunes

Чернобыль

iTunes

Ральф против интернета

Лицензия

ПШазам

Лицензия

Оно 2

Лицензия

30
pack

Вам бонус

ВАЖНО

!!Акция!!

Alien_RageХит недели

RePack

Resident Evil 21

ИГРА 18+

pack

RePack

jed

!!Акция!!

Alien_Rage

RePack

fifa19

RePack

Assassins Creed: Odyssey

RePack

NEED FOR SPEED™ PAYBACK

3 сезон

9 сезон

Бесстыжие 9 сезон

Все сериалы

все сериалы на PB.wtf

RePack

FAR CRY 5
Ребята, катастрофически не хватает 1900р. для оплаты серверов за Октябрь (всвязи с блокировками трафик упал в 3 раза), 1-2р., выручайте.
  

По законам военного времени (Игорь Слабневич) [1982, СССР, боевик, военный, SATRip от AVP Studio] pb.wtf

По законам военного времени через торрент pb.wtf

Размер: 745 MB | Добавлен: 4 года 2 мес. назад | Торрент скачан:28 раз
Скачать  

22-09-2015 15:44 По законам военного времени Скачать торрент  

По законам военного времени
Страна: СССР
Производство: Мосфильм

Жанр: боевик, военный
Год выпуска: 1977
Продолжительность: 01:15:12

Перевод: Не требуется
Cубтитры: нет
Оригинальная аудиодорожка: русский

Режиссер: Игорь Слабневич

В ролях:
Ольга Агеева, Владимир Широков, Борис Сморчков, Игорь Ясулович, Алексей Ясулович, Раиса Рязанова, Николай Маковский, Татьяна Кочемасова, Майя Булгакова, Наталья Фатеева...
Полный список актёров

Описание:
Первые месяцы Великой Отечественной войны. Воинский эшелон в небольшом городке готовился к отправке на фронт. Четверо солдат, получив увольнительную в город, отстали от поезда, что по законам военного времени считалось дезертирством. Добравшись до железнодорожного моста, новобранцы увидели группу немецких диверсантов и вступили в неравную схватку с вражеским десантом. Ценой собственной жизни герои спасли мост и предотвратили гибель эшелона.

Источник: DVB
Качество видео: SATRip
Формат видео: AVI

Видео: 720x384 (1,85:1), 25 fps, XviD ~ 1184 kbps avg, 0.171 bit/pixel
Аудио: 48 kHz, Dolby Digital AC3 2.0, 192 kbps

Раздача от:
Общее
Полное имя : Po.zakonam.voennogo.vremeni.1982.SATRip-745_[New-team]_by_AVP_Studio.avi
Формат : AVI
Формат/Информация : Audio Video Interleave
Размер файла : 745 Мбайт
Продолжительность : 1 ч. 15 м.
Общий поток : 1386 Кбит/сек
Программа кодирования : VirtualDubMod 1.5.10.3 | www.virtualdub-fr.org || (build 2550/release)
Библиотека кодирования : VirtualDubMod build 2550/release

Видео
Идентификатор : 0
Формат : MPEG-4 Visual
Профиль формата : Advanced Simple@L5
Параметр BVOP формата : 1
Параметр QPel формата : Нет
Параметр GMC формата : Без точки перехода
Параметр матрицы формата : Выборочная
Идентификатор кодека : XVID
Идентификатор кодека/Подсказка : XviD
Продолжительность : 1 ч. 15 м.
Битрейт : 1184 Кбит/сек
Ширина : 720 пикселей
Высота : 384 пикселя
Соотношение сторон : 1,85:1
Частота кадров : 25,000 кадров/сек
Цветовое пространство : YUV
Субдискретизация насыщенности : 4:2:0
Битовая глубина : 8 бит
Тип развёртки : Прогрессивная
Метод сжатия : С потерями
Бит/(Пиксели*Кадры) : 0.171
Размер потока : 637 Мбайт (85%)
Библиотека кодирования : XviD 73

Аудио
Идентификатор : 1
Формат : AC-3
Формат/Информация : Audio Coding 3
Расширение режима : CM (complete main)
Параметр Endianness формата : Big
Идентификатор кодека : 2000
Продолжительность : 1 ч. 15 м.
Вид битрейта : Постоянный
Битрейт : 192 Кбит/сек
Каналы : 2 канала
Расположение каналов : Front: L R
Частота : 48,0 КГц
Метод сжатия : С потерями
Размер потока : 103 Мбайт (14%)
Выравнивание : Разделение по промежуткам
Продолжительность промежутка : 40 мс. (1,00 видеокадр)
Время предзагрузки промежутка : 500 мс
pb.wtf



Скачать По законам военного времени через торрент http://s020.radikal.ru/i716/1509/65/ea1903f653fe.png Скачать фильм По законам военного времени через торрент бесплантно в хорошем качестве Описание:Первые месяцы Великой Отечественной войны. Воинский эшелон в небольшом городке готовился к отправке на фронт. Четверо солдат, ... 10 10 3
Торрент: Зарегистрирован [2015-09-22 15:44] · скачан: 28 раз
Статус: √ проверено
Размер: 745 MB
Как cкачать? Как скачать По законам военного времени через торрент | qTorrent

% Раздел Тема Автор DL S | L
Наши сериалы [ 18.28 GB ] По законам военного времени [2019 Военный исторический HDTV Оригинал] Бумер Скачать
2 | 0
Наши сериалы [ 5.11 GB ] По законам военного времени / Сезон: 3 / Серии: 1-8 из 8 [2019 военный шпионский SATRip-AVC] aleksan55 Скачать
3 | 0
Наши сериалы [ 7.02 GB ] По законам военного времени / 1-12 серии из 12 [2016 военный история WEB-DLRip] bober100 Скачать
1 | 1
Наши сериалы [ 6.14 GB ] По законам военного времени / Сезон: 2 / Серии: 1-8 из 8 [2018 Военный история HDTVRip-AVC] bober100 Скачать
2 | 0
Наши сериалы [ 9.37 GB ] По законам военного времени / Сезон: 2 / Серии: 1-8 из 8 [2018 Военный история WEB-DL 720p] bober100 Скачать
1 | 0
Наши сериалы [ 5.08 GB ] По законам военного времени / Сезон: 2 / Серии: 1-8 из 8 [2018 Военный история WEB-DLRip] bober100 Скачать
1 | 0
Наши сериалы [ 10.33 GB ] По законам военного времени / Сезон: 2 / Серии: 1-8 из 8 [2018 Военный история HDTVRip 720p] bober100 Скачать
1 | 0
    Дорогой пользователь! Огромная просьба, поблагодарите релизера, оцените раздачу и оставьте свои комментарий, если Вы скачали По законам военного времени через торрент бесплатно! Внесите свою лепту в развитие PiratBit!
    Комментировать посты могут только пользователи прошедшие не сложную регистрацию
    Показать сообщения:    

    По законам военного времени через торрент
    Скачать бесплатно По законам военного времени
    По законам военного времени скачать торрент
    По законам военного времени смотреть онлайн
    Cкачать фильм По законам военного времени бесплатно
    По законам военного времени скачать торрент в хорошем качестве
    По законам военного времени смотреть онлайн бесплатно в хорошем качестве


    Вы не можете начинать темы
    Вы не можете отвечать на сообщения
    Вы не можете редактировать свои сообщения
    Вы не можете удалять свои сообщения
    Вы не можете голосовать в опросах
    Вы не можете прикреплять файлы к сообщениям
    Вы можете скачивать файлы