Ссылка на приватное зеркало нашего сайта всего за 1$. Внимание количество ограничено!!!

2 сезон

iTunes

1 сезон

1

2 сезон

2 сезон

iTunes

1 сезон

RePack

30

Ultimate

ВАЖНО

ИГРА 18+

pack

RePack

MK11
pack

Забери бонус

RePack

jed

!!Акция!!

Alien_Rage

RePack

fifa19

RePack

Assassins Creed: Odyssey

RePack

NEED FOR SPEED™ PAYBACK

4 сезон

9 сезон

Бесстыжие 9 сезон

Все сериалы

все сериалы на PB.wtf

RePack

FAR CRY 5
  

Секретные материалы / The X Files (1-7 сезоны) (Ким Мэннерс) [1993-2000, Детектив, Драма, Триллер, Ужасы, Фантастика, HDTVRip 720p / ТВ3] pb.wtf

Секретные материалы через торрент pb.wtf

Раздают: 1 [ 0 KB/s ]
Размер: 207.69 GB | Добавлен: 5 лет 2 мес. назад | Торрент скачан:178 раз
Скачать  

22-09-2015 19:11 Секретные материалы Скачать торрент  

Информация о фильме

Название: Секретные материалы

Оригинальное название: The X-Files

Страна: США

Студия: 20th Century Fox Television

Продолжительность: 161 x ~ 00:45:00

Перевод: Дублированный - ТВ3

Год выхода: 1993-2000

Жанр: Детектив, Драма, Триллер, Ужасы, Фантастика

Режиссер: Ким Мэннерс, Дэвид Духовны, Крис Картер, Томас Дж. Райт, Род Харди, Ларри Шоу, Тони Уормби, Роб Боумен

В ролях: Джиллиан Андерсон, Дэвид Духовны, Роберт Патрик, Уильям Б. Дэвис, Митч Пилледжи, Николас Ли, Аннабет Гиш, Брюс Харвуд, Марк Шеппард

Описание: Фокс Малдер убежден, что мы не одни разумные существа во вселенной. Эта уверенность появилась у него после того, как инопланетяне похитили его сестру. Дана Скалли, напротив, скептически относится к такого рода заявлениям. Начав работать вместе, эти два опытных агента ФБР специализируются на делах под грифом «Секретно». Их разные взгляды на паранормальные явления рождают интересные споры и дискуссии, что немало способствует приближению к разгадке необъяснимых событий. Постепенно, повидав наяву страшных мутантов, привидений или людей со сверхъестественными способностями, агент Скалли склонна согласится со странными убеждениями Малдера.



Файл

Качество: HDTVRip 720p
Формат: MKV

Видео: MPEG-4 AVC, ~ 4000 Кбит/с, 1280x720, 23,976 кадра/сек

Аудио #1: АС3, 2 ch, 192 Кбит/с / 48 kHz | Русский

Аудио #2: АС3, 2 ch, 192 Кбит/с / 48 kHz | Английский
Общее
Уникальный идентификатор : 181323728320631385936848037379888665879 (0x8869AE076082A454B9FC7CDEABC45517)
Полное имя : D:\Торенты\Секретные материалы [sergiogo]\The.X-Files.S01.720p.HDTVRip\The.X-Files.01x00.720p.HDTVRip.mkv
Формат : Matroska
Версия формата : Version 4 / Version 2
Размер файла : 1,42 Гбайт
Продолжительность : 47 м.
Общий поток : 4259 Кбит/сек
Название фильма : S01E00 Пилот
Дата кодирования : UTC 2015-09-13 19:51:06
Программа кодирования : mkvmerge v8.3.0 ('Over the Horizon') 64bit
Библиотека кодирования : libebml v1.3.1 + libmatroska v1.4.2

Видео
Идентификатор : 1
Формат : AVC
Формат/Информация : Advanced Video Codec
Профиль формата : High@L4.1
Параметр CABAC формата : Да
Параметр ReFrames формата : 9 кадров
Идентификатор кодека : V_MPEG4/ISO/AVC
Продолжительность : 47 м.
Битрейт : 3790 Кбит/сек
Ширина : 1280 пикселей
Высота : 720 пикселей
Соотношение сторон : 16:9
Режим частоты кадров : Постоянный
Частота кадров : 23,976 кадра/сек
Цветовое пространство : YUV
Субдискретизация насыщенности : 4:2:0
Битовая глубина : 8 бит
Тип развёртки : Прогрессивная
Бит/(Пиксели*Кадры) : 0.172
Размер потока : 1,26 Гбайт (89%)
Библиотека кодирования : x264 core 138 r2358 9e941d1
Настройки программы : cabac=1 / ref=9 / deblock=1:-3:-3 / analyse=0x3:0x133 / me=umh / subme=10 / psy=1 / psy_rd=1.00:0.15 / mixed_ref=1 / me_range=32 / chroma_me=1 / trellis=2 / 8x8dct=1 / cqm=0 / deadzone=21,11 / fast_pskip=0 / chroma_qp_offset=-3 / threads=12 / lookahead_threads=2 / sliced_threads=0 / nr=0 / decimate=0 / interlaced=0 / bluray_compat=0 / constrained_intra=0 / bframes=7 / b_pyramid=2 / b_adapt=2 / b_bias=0 / direct=3 / weightb=1 / open_gop=0 / weightp=2 / keyint=240 / keyint_min=22 / scenecut=40 / intra_refresh=0 / rc=crf / mbtree=0 / crf=20.0 / qcomp=0.60 / qpmin=0 / qpmax=69 / qpstep=4 / ip_ratio=1.40 / pb_ratio=1.30 / aq=1:0.80
Язык : Russian
Default : Да
Forced : Нет

Аудио #1
Идентификатор : 2
Формат : AC-3
Формат/Информация : Audio Coding 3
Расширение режима : CM (complete main)
Параметр Endianness формата : Big
Идентификатор кодека : A_AC3
Продолжительность : 47 м.
Вид битрейта : Постоянный
Битрейт : 192 Кбит/сек
Каналы : 2 канала
Расположение каналов : Front: L R
Частота : 48,0 КГц
Битовая глубина : 16 бит
Метод сжатия : С потерями
Размер потока : 65,5 Мбайт (5%)
Заголовок : Дубляж (ТВ3)
Язык : Russian
Default : Да
Forced : Нет

Аудио #2
Идентификатор : 3
Формат : AC-3
Формат/Информация : Audio Coding 3
Расширение режима : CM (complete main)
Параметр Endianness формата : Big
Идентификатор кодека : A_AC3
Продолжительность : 47 м.
Вид битрейта : Постоянный
Битрейт : 192 Кбит/сек
Каналы : 2 канала
Расположение каналов : Front: L R
Частота : 48,0 КГц
Битовая глубина : 16 бит
Метод сжатия : С потерями
Размер потока : 65,5 Мбайт (5%)
Заголовок : Eng
Язык : English
Default : Нет
Forced : Нет

Текст
Идентификатор : 4
Формат : UTF-8
Идентификатор кодека : S_TEXT/UTF8
Идентификатор кодека/Информация : UTF-8 Plain Text
Язык : Russian
Default : Да
Forced : Нет


pb.wtf



Скачать Секретные материалы через торрент http://s020.radikal.ru/i716/1509/0b/a70fe6ef7226.jpg Скачать фильм Секретные материалы через торрент бесплантно в хорошем качестве Описание: Фокс Малдер убежден, что мы не одни разумные существа во вселенной. Эта уверенность появилась у него после того, как ... 9.9 10 28
Info! Золотая раздача, скачанное не засчитывается.
Торрент: Зарегистрирован [2015-09-22 19:11] · скачан: 178 раз
Статус: √ проверено
Размер: 207.69 GB
Как cкачать? Как скачать Секретные материалы через торрент | qTorrent

% Раздел Тема Автор DL S | L
Зарубежные сериалы [ 5.41 GB ] Секретные материалы / The X-Files / Сезон: 11 / Серии: 1-10 из 10 [2018 WEB-DLRip] MVO [LostFilm] bober100 Скачать
1 | 0
Зарубежные сериалы [ 5.59 GB ] Секретные материалы / The X-Files / Сезон 11 / Серия 1-10 из 10 [2018 WEBRip] [MVO] [голоса ОРТ и RenTv] killermax2013 Скачать
1 | 0
Зарубежные сериалы [ 35.99 GB ] Секретные материалы / The X-Files / Сезон 11 / Серия 1-10 из 10 [2018 WEBRip 1080p] [MVO] [голоса ОРТ и RenTv] killermax2013 Скачать
1 | 0
Зарубежные сериалы [ 11.48 GB ] Секретные материалы / The X-Files / Сезон 11 / Серия 1-10 из 10 [2018 WEBRip 720p] [MVO] [голоса ОРТ и RenTv] killermax2013 Скачать
1 | 0
Зарубежные сериалы [ 12.71 GB ] Секретные материалы / The X-Files / Сезон: 11 / Серии: 1-10 из 10 [2018 WEBRip 720p] MVO [Profix Media] bober100 Скачать
1 | 0
Зарубежные сериалы [ 8.61 GB ] Секретные материалы / The X-Files / Сезон: 11 / Серии: 1-10 из 10 [2018 HDTVRip 720p] DVO [SunshineStudio] bober100 Скачать
1 | 0
Зарубежные сериалы [ 4.07 GB ] Секретные материалы / The X-Files / Сезон: 11 / серии 01-10 [2018 WEBRip] [MVO] killermax2013 Скачать
1 | 0

28-11-2019 20:33  

Отключить всю рекламу на сайте

22-09-2015 19:55 Секретные материалы Скачать торрент  

Один из любимых сериалов, жаль что с моим инетом только к пенсии скачается)pb.wtf



22-09-2015 20:25 Секретные материалы Скачать торрент  

Вспоминается детство,я его смотрел когда еще три канала всего было)))и то третий можно было смотреть с декодором)))Основная часть смотрела санта барбару,а мы с семьей секретные материалы,самый крутой сериал,своего времени...pb.wtf



22-09-2015 20:40 Секретные материалы Скачать торрент  

А еще два сезона в таком качестве не найдется?)pb.wtf



23-09-2015 08:35 Секретные материалы Скачать торрент  

Linch писал(а):

А еще два сезона в таком качестве не найдется?)

pb.wtf



23-09-2015 10:05 Секретные материалы Скачать торрент  

Linch, Kodryn85, Нет пока.pb.wtf



24-09-2015 09:19 Секретные материалы Скачать торрент  

Ворон писал(а):

Linch, Kodryn85, Нет пока.

Но предполагаются?pb.wtf



20-12-2015 17:23 Секретные материалы Скачать торрент  

кто нибудь встаньте на раздачу sos!!!!pb.wtf



28-01-2016 06:26 Секретные материалы Скачать торрент  

ох же завалюсь смотреть сериал... детстве смотрел но это не тоpb.wtf



29-02-2016 17:04 Секретные материалы Скачать торрент  

В 4 серии 5-го сезона фигня какая-то с озвучкой.pb.wtf



    Дорогой пользователь! Огромная просьба, поблагодарите релизера, оцените раздачу и оставьте свои комментарий, если Вы скачали Секретные материалы через торрент бесплатно! Внесите свою лепту в развитие PiratBit!
    Комментировать посты могут только пользователи прошедшие не сложную регистрацию
    Показать сообщения:    

    Секретные материалы через торрент
    Скачать бесплатно Секретные материалы
    Секретные материалы скачать торрент
    Секретные материалы смотреть онлайн
    Cкачать фильм Секретные материалы бесплатно
    Секретные материалы скачать торрент в хорошем качестве
    Секретные материалы смотреть онлайн бесплатно в хорошем качестве


    Вы не можете начинать темы
    Вы не можете отвечать на сообщения
    Вы не можете редактировать свои сообщения
    Вы не можете удалять свои сообщения
    Вы не можете голосовать в опросах
    Вы не можете прикреплять файлы к сообщениям
    Вы можете скачивать файлы