новый адрес
Ссылка на приватное зеркало всего за 1$. Внимание количество ограничено!!!

iTunes

1+1

iTunes

мы

WEB-DL

1

iTunes

Чернобыль

iTunes

Ральф против интернета

Лицензия

ПШазам

Лицензия

Оно 2

Лицензия

30
pack

Вам бонус

ВАЖНО

!!Акция!!

Alien_RageХит недели

RePack

Resident Evil 21

ИГРА 18+

pack

RePack

jed

!!Акция!!

Alien_Rage

RePack

fifa19

RePack

Assassins Creed: Odyssey

RePack

NEED FOR SPEED™ PAYBACK

3 сезон

9 сезон

Бесстыжие 9 сезон

Все сериалы

все сериалы на PB.wtf

RePack

FAR CRY 5
Ребята, катастрофически не хватает 1900р. для оплаты серверов за Октябрь (всвязи с блокировками трафик упал в 3 раза), 1-2р., выручайте.
  

Братушка / Bratyuzhka (Игорь Добролюбов) [1975, СССР, Болгария, драма, военный, SATRip от AVP Studio] pb.wtf

Братушка через торрент pb.wtf

Размер: 1.07 GB | Добавлен: 4 года 2 мес. назад | Торрент скачан:6 раз
Скачать  

23-09-2015 07:50 Братушка Скачать торрент  

Братушка
Bratyuzhka

Страна: СССР, Болгария
Производство: Беларусьфильм, "Бояна"

Жанр: драма, военный
Год выпуска: 1975
Продолжительность: 01:15:58

Перевод: Не требуется
Cубтитры: нет
Оригинальная аудиодорожка: русский

Режиссер: Игорь Добролюбов

В ролях:
Анатолий Кузнецов, Стефан Данаилов, Светлана Тома, Владимир Басов, Никола Тодев, Милка Туйкова, Иван Цветарский, Георгий Бахчеванов, Пенко Пенков, Иван Григоров, Иван Гайдарджиев, Владимир Давчев, Николай Клисуров...
Полный список актёров

Описание:
Фильм повествует об одном из эпизодов освобождения Болгарии советскими солдатами в сентябре 1944 года. У следующей в тыловом обозе конной повозки Алеся Казанка ломается колесо и ему приходится завернуть в ближайшую деревню. Жители деревни давно уже ждут освободителей и устраивают Алесю торжественную встречу. Местные мастера ставят на его телегу новое колесо – красивое, расписное. Казанка просит подвести до города студент Живко, которого сослали сюда прежние власти за подпольную работу. У Алеся уже есть одна пассажирка – румынка Марика, освобожденная советскими бойцами из фашистского плена. Вскоре у троих путешественников появляется еще один попутчик - в плен Казанку сдается немецкий солдат Иоганн. Прежде чем герои фильма доберутся до города, произойдет еще много встреч и событий...

Источник: DVB
Качество видео: SATRip
Формат видео: AVI

Видео: 704x528 (4:3), 25 fps, XviD ~ 1752 kbps avg, 0.189 bit/pixel
Аудио: 48 kHz, Dolby Digital AC3 2.0, 256 kbps

Раздача от:
Общее
Полное имя : Bratushka.1975.SATRip_[New-team]_by_AVP_Studio.avi
Формат : AVI
Формат/Информация : Audio Video Interleave
Размер файла : 1,07 Гбайт
Продолжительность : 1 ч. 15 м.
Общий поток : 2018 Кбит/сек
Программа кодирования : VirtualDubModRus 1.5.10.2 (build 2542/release)
Библиотека кодирования : VirtualDubMod build 2542/release

Видео
Идентификатор : 0
Формат : MPEG-4 Visual
Профиль формата : Advanced Simple@L5
Параметр BVOP формата : 1
Параметр QPel формата : Нет
Параметр GMC формата : Без точки перехода
Параметр матрицы формата : Default (H.263)
Идентификатор кодека : XVID
Идентификатор кодека/Подсказка : XviD
Продолжительность : 1 ч. 15 м.
Битрейт : 1752 Кбит/сек
Ширина : 704 пикселя
Высота : 528 пикселей
Соотношение сторон : 4:3
Частота кадров : 25,000 кадров/сек
Цветовое пространство : YUV
Субдискретизация насыщенности : 4:2:0
Битовая глубина : 8 бит
Тип развёртки : Прогрессивная
Метод сжатия : С потерями
Бит/(Пиксели*Кадры) : 0.189
Размер потока : 952 Мбайт (87%)
Библиотека кодирования : XviD 73

Аудио
Идентификатор : 1
Формат : AC-3
Формат/Информация : Audio Coding 3
Профиль формата : Dolby Digital
Расширение режима : CM (complete main)
Параметр Endianness формата : Big
Идентификатор кодека : 2000
Продолжительность : 1 ч. 15 м.
Вид битрейта : Постоянный
Битрейт : 256 Кбит/сек
Каналы : 2 канала
Расположение каналов : Front: L R
Частота : 48,0 КГц
Метод сжатия : С потерями
Размер потока : 139 Мбайт (13%)
Выравнивание : Разделение по промежуткам
Продолжительность промежутка : 40 мс. (1,00 видеокадр)
Время предзагрузки промежутка : 500 мс
pb.wtf



Скачать Братушка через торрент http://s005.radikal.ru/i212/1509/3d/f24df0719ec2.png Скачать фильм Братушка через торрент бесплантно в хорошем качестве Описание:Фильм повествует об одном из эпизодов освобождения Болгарии советскими солдатами в сентябре 1944 года. У следующей в тыловом обозе ... 10 10 2
Info! Золотая раздача, скачанное не засчитывается.
Торрент: Зарегистрирован [2015-09-23 07:50] · скачан: 6 раз
Статус: √ проверено
Размер: 1.07 GB
Как cкачать? Как скачать Братушка через торрент | qTorrent

% Раздел Тема Автор DL S | L
Кино СССР [ 1.09 GB ] Братушка / Bratyuzhka [1975 СССР Болгария военный SATRip-AVC от AVP Studio] AVP Studio Скачать
3 | 0
Кино СССР [ 747 MB ] Братушка / Bratyuzhka [1975 СССР Болгария военный SATRip от AVP Studio] AVP Studio Скачать
1 | 0

28-11-2019 20:33  

Отключить всю рекламу на сайте

    Дорогой пользователь! Огромная просьба, поблагодарите релизера, оцените раздачу и оставьте свои комментарий, если Вы скачали Братушка через торрент бесплатно! Внесите свою лепту в развитие PiratBit!
    Комментировать посты могут только пользователи прошедшие не сложную регистрацию
    Показать сообщения:    

    Братушка через торрент
    Скачать бесплатно Братушка
    Братушка скачать торрент
    Братушка смотреть онлайн
    Cкачать фильм Братушка бесплатно
    Братушка скачать торрент в хорошем качестве
    Братушка смотреть онлайн бесплатно в хорошем качестве


    Вы не можете начинать темы
    Вы не можете отвечать на сообщения
    Вы не можете редактировать свои сообщения
    Вы не можете удалять свои сообщения
    Вы не можете голосовать в опросах
    Вы не можете прикреплять файлы к сообщениям
    Вы можете скачивать файлы