новый адрес
Ссылка на приватное зеркало всего за 1$. Внимание количество ограничено!!!

iTunes

1+1

iTunes

мы

iTunes

1

iTunes

Чернобыль

iTunes

Ральф против интернета

Лицензия

ПШазам

Лицензия

Оно 2

Лицензия

30
pack

Вам бонус

ВАЖНО

!!Акция!!

Alien_RageХит недели

RePack

Resident Evil 21

ИГРА 18+

pack

RePack

jed

!!Акция!!

Alien_Rage

RePack

fifa19

RePack

Assassins Creed: Odyssey

RePack

NEED FOR SPEED™ PAYBACK

3 сезон

9 сезон

Бесстыжие 9 сезон

Все сериалы

все сериалы на PB.wtf

RePack

FAR CRY 5
Ребята, катастрофически не хватает 1900р. для оплаты серверов за Октябрь (всвязи с блокировками трафик упал в 3 раза), 1-2р., выручайте.
  

Факт (Альмантас Грикявичюс) [1980, СССР, драма, военный, SATRip от AVP Studio] pb.wtf

Факт через торрент pb.wtf

Размер: 1.48 GB | Добавлен: 4 года 1 мес. назад | Торрент скачан:10 раз
Скачать  

23-09-2015 08:49 Факт Скачать торрент  

Факт
Страна: СССР
Производство: Литовская киностудия

Жанр: драма, военный
Год выпуска: 1980
Продолжительность: 01:24:36

Перевод: Не требуется
Cубтитры: нет
Оригинальная аудиодорожка: русский

Режиссер: Альмантас Грикявичюс

В ролях:
Регимантас Адомайтис, Донатас Банионис, Юозас Будрайтис, Улдис Думпис, Александр Кайдановский, Ирена Мария Леонавичюте (II), Арнис Лицитис, Петерис Лиепиньш, Вайва Майнелите, Альгимантас Масюлис, Лаймонас Норейка, Эугения Плешките, Елена Соловей...
Полный список актёров

Описание:
Фильм, в основе которого исторический факт - 3 июня 1944 года фашисты сожгли заживо всех жителей деревни Пирчюпяй, - предельно точно воссоздает события этого страшного дня.

Источник: DVB
Качество видео: SATRip
Формат видео: AVI

Видео: 704x528 (4:3), 25 fps, XviD ~ 2115 kbps avg, 0.228 bit/pixel
Аудио: 48 kHz, Dolby Digital AC3 2.0, 384 kbps

Раздача от:
Общее
Полное имя : Fakt.1980.SATRip_[New-team]_by_AVP_Studio.avi
Формат : AVI
Формат/Информация : Audio Video Interleave
Размер файла : 1,48 Гбайт
Продолжительность : 1 ч. 24 м.
Общий поток : 2509 Кбит/сек
Программа кодирования : VirtualDubModRus 1.5.10.2 (build 2542/release)
Библиотека кодирования : VirtualDubMod build 2542/release

Видео
Идентификатор : 0
Формат : MPEG-4 Visual
Профиль формата : Advanced Simple@L5
Параметр BVOP формата : 2
Параметр QPel формата : Нет
Параметр GMC формата : Без точки перехода
Параметр матрицы формата : Default (MPEG)
Идентификатор кодека : XVID
Идентификатор кодека/Подсказка : XviD
Продолжительность : 1 ч. 24 м.
Битрейт : 2115 Кбит/сек
Ширина : 704 пикселя
Высота : 528 пикселей
Соотношение сторон : 4:3
Частота кадров : 25,000 кадров/сек
Цветовое пространство : YUV
Субдискретизация насыщенности : 4:2:0
Битовая глубина : 8 бит
Тип развёртки : Прогрессивная
Метод сжатия : С потерями
Бит/(Пиксели*Кадры) : 0.228
Размер потока : 1,25 Гбайт (84%)
Библиотека кодирования : XviD 73

Аудио
Идентификатор : 1
Формат : AC-3
Формат/Информация : Audio Coding 3
Профиль формата : Dolby Digital
Расширение режима : CM (complete main)
Параметр Endianness формата : Big
Идентификатор кодека : 2000
Продолжительность : 1 ч. 24 м.
Вид битрейта : Постоянный
Битрейт : 384 Кбит/сек
Каналы : 2 канала
Расположение каналов : Front: L R
Частота : 48,0 КГц
Метод сжатия : С потерями
Размер потока : 232 Мбайт (15%)
Выравнивание : Разделение по промежуткам
Продолжительность промежутка : 40 мс. (1,00 видеокадр)
Время предзагрузки промежутка : 500 мс
pb.wtf



Скачать Факт через торрент http://s019.radikal.ru/i618/1509/9f/2a84694218d0.png Скачать фильм Факт через торрент бесплантно в хорошем качестве Описание:Фильм, в основе которого исторический факт - 3 июня 1944 года фашисты сожгли заживо всех жителей деревни Пирчюпяй, - предельно ... 10 10 2
Info! Золотая раздача, скачанное не засчитывается.
Торрент: Зарегистрирован [2015-09-23 08:49] · скачан: 10 раз
Статус: √ проверено
Размер: 1.48 GB
Как cкачать? Как скачать Факт через торрент | qTorrent

% Раздел Тема Автор DL S | L
Фильмы без перевода [ 1.45 GB ] Кто она? / Удивительно но факт / Strange But True [2019 BDRip] Sub [RUS] - ExKinoRay Enigma2010 Скачать
35 | 2
Другое [ 33 MB ] Журнал | Аргументы и Факты №38 [2019 PDF] bober100 Скачать
1 | 0
S.T.A.L.K.E.R. [ 3.24 GB ] S.T.A.L.K.E.R.: Call of Pripyat - Холодная кровь: Факты. Часть первая [Repack RUS] by SeregA-Lus SeregA_Lus Скачать
1 | 0
Порно фильмы с сюжетом [ 1.15 GB ] Фактория / The Factory [2019 All Sex Domination Fetish WEB-DL] bashai5 Скачать
4 | 0
Фантастика [ 600 MB ] Александр Плетнёв - Проект «Орлан» 3. Фактор умолчания [Альберт Фомин 2019 128 kbps MP3] bober100 Скачать
2 | 0
Фантастика [ 725 MB ] Орлов Алекс - База 24 кн. 7. Фактор превосходства [Skorostnik 2019 128 kbps MP3] bober100 Скачать
1 | 0
Другое [ 28 MB ] Журнал | Аргументы и Факты №29 [2019 PDF] bober100 Скачать
1 | 0
    Дорогой пользователь! Огромная просьба, поблагодарите релизера, оцените раздачу и оставьте свои комментарий, если Вы скачали Факт через торрент бесплатно! Внесите свою лепту в развитие PiratBit!
    Комментировать посты могут только пользователи прошедшие не сложную регистрацию
    Показать сообщения:    

    Факт через торрент
    Скачать бесплатно Факт
    Факт скачать торрент
    Факт смотреть онлайн
    Cкачать фильм Факт бесплатно
    Факт скачать торрент в хорошем качестве
    Факт смотреть онлайн бесплатно в хорошем качестве


    Вы не можете начинать темы
    Вы не можете отвечать на сообщения
    Вы не можете редактировать свои сообщения
    Вы не можете удалять свои сообщения
    Вы не можете голосовать в опросах
    Вы не можете прикреплять файлы к сообщениям
    Вы можете скачивать файлы