Ссылка на приватное зеркало всего за 1$. Внимание количество ограничено!!!

OK

1+1

iTunes

мы

OK

1

WEB-DLRip

Джокер

Пифагор

Ведьмак / The Witcher сериал

Лицензия

ПШазам

ОК

Оно 2

iTunes

30
pack

Вам бонус

ВАЖНО

!!Акция!!

Alien_RageХит недели

RePack

Resident Evil 21

ИГРА 18+

pack

RePack

jed

!!Акция!!

Alien_Rage

RePack

fifa19

RePack

Assassins Creed: Odyssey

RePack

NEED FOR SPEED™ PAYBACK

4 сезон

9 сезон

Бесстыжие 9 сезон

Все сериалы

все сериалы на PB.wtf

RePack

FAR CRY 5
  

Эксмур / X Moor ( Люк Хайамс) [2014, Ужасы, WEBRip-AVC] VO pb.wtf

Эксмур через торрент pb.wtf

Размер: 769 MB | Добавлен: 4 года 3 мес. назад | Торрент скачан:131 раз
Скачать  

23-09-2015 12:03 Эксмур Скачать торрент  

Информация о фильме

Название: Эксмур

Оригинальное название: X Moor

Год выпуска: 2014

Страна: Великобритания

Продолжительность: 01:23:00

Перевод фильма: river11

Озвучено: Любительский (одноголосый закадровый) Хихикающий доктор

Жанр: Ужасы

Режиссер: Люк Хайамс

В ролях: Мелиа Крейлинг, Ник Блад, Марк Боннар, Оливия Попика, Симона Кирби, Софи Харкнесс, Фергал МакЭлхеррон, Джемма О’брин, Хлоя Бейкер

Описание: Пара документалистов отправляются в лес сельской местности Эксмур, чтобы найти доказательства существования таинственных больших кошек, которые бродят там. Но то, что они нашли в глубине леса, это был ужас,которые они не могли себе представить.Теперь они должны бороться изо всех сил, чтобы выжить или стать жертвой, того что скрывается в темноте.





Файл

Качество: WEBRip (AVC)
Формат: MKV

Видео: MPEG-4 AVC, 1100Кбит/с, 720x400, 23,976 fps

Аудио: Русский (MP3, 2 ch, 192 Кбит/с), 48 kHz
Общее
Уникальный идентификатор : 211436020215414845218293264069437423275 (0x9F1118A4DAF931B38270E630A37BFEAB)
Полное имя : D:\Торенты\X.Moor.2014.2014.Xixidok.mkv
Формат : Matroska
Версия формата : Version 1
Размер файла : 769 Мбайт
Продолжительность : 1 ч. 23 м.
Общий поток : 1293 Кбит/сек
Дата кодирования : UTC 2015-09-23 10:29:12
Программа кодирования : mkvmerge v2.3.0 ('Freak U') built on Sep 8 2008 18:32:16
Библиотека кодирования : libebml v0.7.7 + libmatroska v0.8.1

Видео
Идентификатор : 1
Формат : AVC
Формат/Информация : Advanced Video Codec
Профиль формата : High@L3.1
Параметр CABAC формата : Да
Параметр ReFrames формата : 5 кадров
Идентификатор кодека : V_MPEG4/ISO/AVC
Продолжительность : 1 ч. 23 м.
Битрейт : 1100 Кбит/сек
Ширина : 720 пикселей
Высота : 400 пикселей
Соотношение сторон : 16:9
Соотношение сторон в оригинале : 16:9
Режим частоты кадров : Постоянный
Частота кадров : 25,000 кадров/сек
Цветовое пространство : YUV
Субдискретизация насыщенности : 4:2:0
Битовая глубина : 8 бит
Тип развёртки : Прогрессивная
Бит/(Пиксели*Кадры) : 0.153
Размер потока : 639 Мбайт (83%)
Библиотека кодирования : x264 core 142 r2495 6a301b6
Настройки программы : cabac=1 / ref=5 / deblock=1:-2:-2 / analyse=0x3:0x113 / me=umh / subme=8 / psy=1 / psy_rd=0.90:0.00 / mixed_ref=1 / me_range=16 / chroma_me=1 / trellis=1 / 8x8dct=1 / cqm=0 / deadzone=21,11 / fast_pskip=1 / chroma_qp_offset=-2 / threads=8 / lookahead_threads=2 / sliced_threads=0 / nr=0 / decimate=1 / interlaced=0 / bluray_compat=0 / constrained_intra=0 / bframes=3 / b_pyramid=2 / b_adapt=2 / b_bias=0 / direct=3 / weightb=1 / open_gop=0 / weightp=2 / keyint=250 / keyint_min=25 / scenecut=40 / intra_refresh=0 / rc_lookahead=50 / rc=abr / mbtree=1 / bitrate=1100 / ratetol=1.0 / qcomp=0.60 / qpmin=0 / qpmax=69 / qpstep=4 / vbv_maxrate=31250 / vbv_bufsize=31250 / nal_hrd=none / filler=0 / ip_ratio=1.40 / aq=1:1.00
Default : Да
Forced : Нет

Аудио
Идентификатор : 2
Формат : MPEG Audio
Версия формата : Version 1
Профиль формата : Layer 3
Идентификатор кодека : A_MPEG/L3
Идентификатор кодека/Подсказка : MP3
Продолжительность : 1 ч. 23 м.
Вид битрейта : Постоянный
Битрейт : 192 Кбит/сек
Каналы : 2 канала
Частота : 44,1 КГц
Метод сжатия : С потерями
Размер потока : 114 Мбайт (15%)
Default : Да
Forced : Нет

Текст
Идентификатор : 3
Формат : UTF-8
Идентификатор кодека : S_TEXT/UTF8
Идентификатор кодека/Информация : UTF-8 Plain Text
Default : Да
Forced : Нет
" rel="gallery" target="_blank" class="postLink fancybox fancybox-media">Семпл
pb.wtf



Скачать Эксмур через торрент http://i72.fastpic.ru/big/2015/0923/9b/1e635ab419cd36a4c709fdd745cb769b.jpg Скачать фильм Эксмур через торрент бесплантно в хорошем качестве Описание: Пара документалистов отправляются в лес сельской местности Эксмур, чтобы найти доказательства существования таинственных больших ... 9.5 10 4
Торрент: Зарегистрирован [2015-09-23 12:03] · скачан: 131 раз
Статус: T временная
Размер: 769 MB
Как cкачать? Как скачать Эксмур через торрент | qTorrent

28-11-2019 20:33  

Отключить всю рекламу на сайте


    Дорогой пользователь! Огромная просьба, поблагодарите релизера, оцените раздачу и оставьте свои комментарий, если Вы скачали Эксмур через торрент бесплатно! Внесите свою лепту в развитие PiratBit!
    Комментировать посты могут только пользователи прошедшие не сложную регистрацию
    Показать сообщения:    

    Эксмур через торрент
    Скачать бесплатно Эксмур
    Эксмур скачать торрент
    Эксмур смотреть онлайн
    Cкачать фильм Эксмур бесплатно
    Эксмур скачать торрент в хорошем качестве
    Эксмур смотреть онлайн бесплатно в хорошем качестве


    Вы не можете начинать темы
    Вы не можете отвечать на сообщения
    Вы не можете редактировать свои сообщения
    Вы не можете удалять свои сообщения
    Вы не можете голосовать в опросах
    Вы не можете прикреплять файлы к сообщениям
    Вы можете скачивать файлы