Ссылка на приватное зеркало всего за 1$. Внимание количество ограничено!!!

iTunes

iTunes

iTunes

1

iTunes

iTunes

iTunes

iTunes

iTunes

30
pack

$ от Little Big

ВАЖНО

!!Акция!!

Alien_RageХит недели

RePack

Resident Evil 21

ИГРА 18+

pack

RePack

jed

!!Акция!!

Alien_Rage

RePack

fifa19

RePack

Assassins Creed: Odyssey

RePack

NEED FOR SPEED™ PAYBACK

4 сезон

9 сезон

Бесстыжие 9 сезон

Все сериалы

все сериалы на PB.wtf

RePack

FAR CRY 5
  

Затаившись / Hidden (Мэтт Даффер, Росс Даффер) [2015, ужасы, триллер, WEB-DL 720p, Любительский двухголосый [den904, DeadSno] pb.wtf

Затаившись через торрент pb.wtf

Раздают: 1 [ 0 KB/s ]
Размер: 2.69 GB | Добавлен: 4 года 9 мес. назад | Торрент скачан:402 раза
Скачать  

23-09-2015 19:29 Затаившись Скачать торрент  


Затаившись / Hidden


ИНФОРМАЦИЯ:
Год выпуска:2015
Страна: США
Жанр: ужасы, триллер
Продолжительность: 01:23:13
Перевод: Любительский двухголосый [den904, DeadSno]
Субтитры: английские,
Режиссер: Мэтт Даффер, Росс Даффер

В Ролях:


Александр Скарсгард (Ray), Андреа Райзборо (Claire), Эмили Элин Линд (Zoe), Хезер Дорксен (Jillian), Уильям Энскау (Joey Neary)

Описание:
Рэй, Клэр и их семилетняя дочь Зои - обычная американская семья, живущая в Кингсвилле, Северная Каролина, - вот только живут они в бомбоубежище с тех самых пор, как наступил конец света, который изменил все.
За 301 день они превратили свою бетонную темницу в дом, держась за воспоминания о прошлом и надеясь когда-нибудь вернуться к нормальной жизни. 301 день им удавалось избегать того, что обитает на поверхности, - тяжелое дыхание, грохочущие шаги, раздающиеся в ночи, внушают страх находящимся в хрупком убежище.
Все это время семье удавалось оставаться незамеченной. До сих пор. Сейчас их безопасность под угрозой... и нечто идет за ними.

  • Мировая премьера:15 сентября 2015

    ТЕХ.ДАННЫЕ:
    Качество: WEB-DL 720p
    Формат: MKV
    Видео: AVC, 1280x532 (2.40:1), 3959 kbps, 23,976 fps, 0,243 bpp
    Аудио №1: русский / AC3 / 2.0 / 48 kHz / 192 kbps / 16 bit ||
    Аудио №2: английский / AC3 / 5.1 / 48 kHz / 384 kbps / 16 bit


    General
    Unique ID : 223186908268675356108310771277092060958 (0xA7E83C27D84B47479E36F52A11277F1E)
    Complete name : D:\Торенты\Hidden.2015.L2.720p.WEB-DL.mkv
    Format : Matroska
    Format version : Version 4 / Version 2
    File size : 2.69 GiB
    Duration : 1h 23mn
    Overall bit rate : 4 627 Kbps
    Movie name : RARBG.COM - Hidden.2015.720p.WEB-DL.DD5.1.H264-RARBG
    Encoded date : UTC 2015-09-23 18:29:34
    Writing application : mkvmerge v7.3.0 ('Nouages') 32bit built on Oct 22 2014 18:44:01
    Writing library : libebml v1.3.0 + libmatroska v1.4.1

    Video
    ID : 1
    Format : AVC
    Format/Info : Advanced Video Codec
    Format profile : Main@L3.1
    Format settings, CABAC : No
    Format settings, ReFrames : 2 frames
    Codec ID : V_MPEG4/ISO/AVC
    Duration : 1h 23mn
    Bit rate : 3 959 Kbps
    Width : 1 280 pixels
    Height : 532 pixels
    Display aspect ratio : 2.40:1
    Frame rate : 23.976 fps
    Color space : YUV
    Chroma subsampling : 4:2:0
    Bit depth : 8 bits
    Scan type : Progressive
    Bits/(Pixel*Frame) : 0.243
    Stream size : 2.30 GiB (86%)
    Title : Hidden.2015.720p.WEB-DL.DD5.1.H264-RARBG
    Language : English
    Default : Yes
    Forced : No
    Color primaries : BT.709-5, BT.1361, IEC 61966-2-4, SMPTE RP177
    Transfer characteristics : BT.709-5, BT.1361
    Matrix coefficients : BT.709-5, BT.1361, IEC 61966-2-4 709, SMPTE RP177

    Audio #1
    ID : 3
    Format : AC-3
    Format/Info : Audio Coding 3
    Mode extension : CM (complete main)
    Codec ID : A_AC3
    Duration : 1h 23mn
    Bit rate mode : Constant
    Bit rate : 192 Kbps
    Channel(s) : 2 channels
    Channel positions : Front: L R
    Sampling rate : 48.0 KHz
    Bit depth : 16 bits
    Compression mode : Lossy
    Stream size : 114 MiB (4%)
    Language : Russian
    Default : Yes
    Forced : No

    Audio #2
    ID : 4
    Format : AC-3
    Format/Info : Audio Coding 3
    Mode extension : CM (complete main)
    Codec ID : A_AC3
    Duration : 1h 23mn
    Bit rate mode : Constant
    Bit rate : 384 Kbps
    Channel(s) : 6 channels
    Channel positions : Front: L C R, Side: L R, LFE
    Sampling rate : 48.0 KHz
    Bit depth : 16 bits
    Compression mode : Lossy
    Stream size : 229 MiB (8%)
    Language : English
    Default : No
    Forced : No

    Text
    ID : 2
    Format : UTF-8
    Codec ID : S_TEXT/UTF8
    Codec ID/Info : UTF-8 Plain Text
    Language : English
    Default : No
    Forced : No
    Скриншоты:


    © Оформление by Ворон
    pb.wtf



  • Скачать Затаившись через торрент http://pic.kartinco.top/images/6/ordi9.jpg Скачать фильм Затаившись через торрент бесплантно в хорошем качестве Описание: Рэй, Клэр и их семилетняя дочь Зои - обычная американская семья, живущая в Кингсвилле, Северная Каролина, - вот только живут они ... 9.9 10 15
    Торрент: Зарегистрирован [2015-09-23 19:29] · скачан: 402 раз
    Статус: T временная
    Размер: 2.69 GB
    Как cкачать? Как скачать Затаившись через торрент | qTorrent

    % Раздел Тема Автор DL S | L
    T Фильмы 2015 [DVDrip, WEB-DLRip, HDrip] [ 1.42 GB ] Затаившись / Спрятанные / Hidden [2015 WEB-DLRip] [MVO] killermax2013 Скачать
    1 | 0
    T Фильмы [HD 720p, 1080p] (Звук Cam, VO, DVO) [ 3.01 GB ] Крадущийся тигр затаившийся дракон: Меч судьбы / Crouching Tiger Hidden Dragon: Sword of Destiny [2016 WEB-DL 720p Любительский ] Userman4ik Скачать
    1 | 0
    T 3D Фильмы [ 12.72 GB ] Крадущийся тигр затаившийся дракон: Меч судьбы в 3Д / Crouching Tiger Hidden Dragon: Sword of Destiny 3D [2016 BDrip 1080p MVO] OverUnder / Вертикальная стереопара serega768 Скачать
    1 | 0
    T Фильмы 2016 (Звук TS, Cam, VO, DVO) [ 1.45 GB ] Крадущийся тигр затаившийся дракон: Меч судьбы / Crouching Tiger Hidden Dragon: Sword of Destiny [2016 WEBRip Любительское [Parovoz Production] Russian Mafia Скачать
    2 | 0
    T Фильмы без перевода [ 2.88 GB ] Крадущийся тигр затаившийся дракон: Меч судьбы / Crouching Tiger Hidden Dragon: Sword of Destiny [2016 WEBRip 720p Оригинальный] Userman4ik Скачать
    1 | 0
    T Фильмы 2015 (Звук TS, Cam, VO, DVO) [ 1.33 GB ] Затаившись / Hidden [2015 WEB-DLRip] DVO Ворон Скачать
    1 | 0
    Фильмы без перевода [ 705 MB ] Затаившись / Hidden [2015 WEB-DLRip] +SubEng] makarevich Скачать
    1 | 0

    28-11-2019 20:33  

    Отключить всю рекламу на сайте

    23-09-2015 20:58 Затаившись Скачать торрент  

    Описание любопытное, надо глянуть!pb.wtf



      Дорогой пользователь! Огромная просьба, поблагодарите релизера, оцените раздачу и оставьте свои комментарий, если Вы скачали Затаившись через торрент бесплатно! Внесите свою лепту в развитие PiratBit!
      Комментировать посты могут только пользователи прошедшие не сложную регистрацию
      Показать сообщения:    

      Затаившись через торрент
      Скачать бесплатно Затаившись
      Затаившись скачать торрент
      Затаившись смотреть онлайн
      Cкачать фильм Затаившись бесплатно
      Затаившись скачать торрент в хорошем качестве
      Затаившись смотреть онлайн бесплатно в хорошем качестве


      Вы не можете начинать темы
      Вы не можете отвечать на сообщения
      Вы не можете редактировать свои сообщения
      Вы не можете удалять свои сообщения
      Вы не можете голосовать в опросах
      Вы не можете прикреплять файлы к сообщениям
      Вы можете скачивать файлы