новый адрес
Ссылка на приватное зеркало всего за 1$. Внимание количество ограничено!!!

iTunes

1+1

iTunes

мы

WEB-DL

1

iTunes

Чернобыль

iTunes

Ральф против интернета

Лицензия

ПШазам

Лицензия

Оно 2

Лицензия

30
pack

Вам бонус

ВАЖНО

!!Акция!!

Alien_RageХит недели

RePack

Resident Evil 21

ИГРА 18+

pack

RePack

jed

!!Акция!!

Alien_Rage

RePack

fifa19

RePack

Assassins Creed: Odyssey

RePack

NEED FOR SPEED™ PAYBACK

3 сезон

9 сезон

Бесстыжие 9 сезон

Все сериалы

все сериалы на PB.wtf

RePack

FAR CRY 5
Ребята, катастрофически не хватает 1900р. для оплаты серверов за Октябрь (всвязи с блокировками трафик упал в 3 раза), 1-2р., выручайте.
  

Товарищ генерал (Теодор Вульфович) [1973, СССР, драма, военный, SATRip от AVP Studio] pb.wtf

Товарищ генерал через торрент pb.wtf

Размер: 744 MB | Добавлен: 4 года 2 мес. назад | Торрент скачан:24 раза
Скачать  

24-09-2015 08:33 Товарищ генерал Скачать торрент  

Товарищ генерал
Страна: СССР
Производство: Мосфильм

Жанр: драма, военный
Год выпуска: 1973
Продолжительность: 01:24:32

Перевод: Не требуется
Cубтитры: нет
Оригинальная аудиодорожка: русский

Режиссер: Теодор Вульфович

В ролях:
Игорь Ледогоров, Георгий Куликов, Виктор Шульгин, Павел Махотин, Владимир Осенев, Раиса Куркина, Ольга Гобзева, Зинаида Славина, Игорь Класс, Алексей Преснецов, Юрий Волков, Юрий Волынцев, Шавкат Газиев, Виктор Задубровский, Михаил Кислов, Владимир Кашпур, Виктор Павлов, Борис Кордунов, Борис Руднев, Леонид Кулагин, Роберт Лигерс...
Полный список актёров

Описание:
1941 год. Армия командарма Капитонова принимает на себя удар немецких войск, рвущихся к Ростову. Хорошо зная тактику немецкого генерала Лейнца, Капитонов блестяще проводит операцию, вошедшую в историю войны под названием “Дьяковской обороны”.

Источник: DVB
Качество видео: SATRip
Формат видео: AVI

Видео: 704x304 (2,35:1), 25 fps, XviD ~ 1029 kbps avg, 0.192 bit/pixel
Аудио: 48 kHz, Dolby Digital AC3 2.0, 192 kbps

Раздача от:
Общее
Полное имя : Tovarishh.general.1973.SATRip_[New-team]_by_AVP_Studio.avi
Формат : AVI
Формат/Информация : Audio Video Interleave
Размер файла : 744 Мбайт
Продолжительность : 1 ч. 24 м.
Общий поток : 1231 Кбит/сек
Программа кодирования : VirtualDubMod 1.5.10.3 | www.virtualdub-fr.org || (build 2550/release)
Библиотека кодирования : VirtualDubMod build 2550/release

Видео
Идентификатор : 0
Формат : MPEG-4 Visual
Профиль формата : Advanced Simple@L5
Параметр BVOP формата : 1
Параметр QPel формата : Нет
Параметр GMC формата : Без точки перехода
Параметр матрицы формата : Выборочная
Идентификатор кодека : XVID
Идентификатор кодека/Подсказка : XviD
Продолжительность : 1 ч. 24 м.
Битрейт : 1029 Кбит/сек
Ширина : 704 пикселя
Высота : 304 пикселя
Соотношение сторон : 2,35:1
Частота кадров : 25,000 кадров/сек
Цветовое пространство : YUV
Субдискретизация насыщенности : 4:2:0
Битовая глубина : 8 бит
Тип развёртки : Прогрессивная
Метод сжатия : С потерями
Бит/(Пиксели*Кадры) : 0.192
Размер потока : 622 Мбайт (84%)
Библиотека кодирования : XviD 73

Аудио
Идентификатор : 1
Формат : AC-3
Формат/Информация : Audio Coding 3
Расширение режима : CM (complete main)
Параметр Endianness формата : Big
Идентификатор кодека : 2000
Продолжительность : 1 ч. 24 м.
Вид битрейта : Постоянный
Битрейт : 192 Кбит/сек
Каналы : 2 канала
Расположение каналов : Front: L R
Частота : 48,0 КГц
Метод сжатия : С потерями
Размер потока : 116 Мбайт (16%)
Выравнивание : Разделение по промежуткам
Продолжительность промежутка : 40 мс. (1,00 видеокадр)
Время предзагрузки промежутка : 500 мс
pb.wtf



Скачать Товарищ генерал через торрент http://s010.radikal.ru/i312/1509/cd/f5271a451927.png Скачать фильм Товарищ генерал через торрент бесплантно в хорошем качестве Описание:1941 год. Армия командарма Капитонова принимает на себя удар немецких войск, рвущихся к Ростову. Хорошо зная тактику немецкого ... 10 10 2
Торрент: Зарегистрирован [2015-09-24 08:33] · скачан: 24 раз
Статус: √ проверено
Размер: 744 MB
Как cкачать? Как скачать Товарищ генерал через торрент | qTorrent

% Раздел Тема Автор DL S | L
Кино СССР [ 744 MB ] Товарищ генерал [1973 СССР военный SATRip-AVC от AVP Studio] AVP Studio Скачать
1 | 0

28-11-2019 20:33  

Отключить всю рекламу на сайте

    Дорогой пользователь! Огромная просьба, поблагодарите релизера, оцените раздачу и оставьте свои комментарий, если Вы скачали Товарищ генерал через торрент бесплатно! Внесите свою лепту в развитие PiratBit!
    Комментировать посты могут только пользователи прошедшие не сложную регистрацию
    Показать сообщения:    

    Товарищ генерал через торрент
    Скачать бесплатно Товарищ генерал
    Товарищ генерал скачать торрент
    Товарищ генерал смотреть онлайн
    Cкачать фильм Товарищ генерал бесплатно
    Товарищ генерал скачать торрент в хорошем качестве
    Товарищ генерал смотреть онлайн бесплатно в хорошем качестве


    Вы не можете начинать темы
    Вы не можете отвечать на сообщения
    Вы не можете редактировать свои сообщения
    Вы не можете удалять свои сообщения
    Вы не можете голосовать в опросах
    Вы не можете прикреплять файлы к сообщениям
    Вы можете скачивать файлы