1 сезон

1 сезон

iTunes

1

iTunes

Кинопоиск HD

iTunes

13

1 сезон

RePack

30

Deluxe

ВАЖНО

ИГРА 18+

pack

RePack

MK11
pack

Легкие деньги

RePack

jed

RePack

fifa19

RePack

RDR2

RePack

NEED FOR SPEED™ PAYBACK

4 сезон

9 сезон

Бесстыжие 9 сезон

Все сериалы

все сериалы на PB.wtf

RePack

FAR CRY 5
  
Magnet ссылка

Крепость (Василе Паскару) [1978, СССР, боевик, драма, военный, DVDRip от AVP Studio] pb.wtf

Крепость через торрент pb.wtf

Размер: 744 MB | Добавлен: 5 лет 7 мес. назад | Торрент скачан:43 раза
Скачать  

24-09-2015 08:37 Крепость Скачать торрент  

Крепость
Страна: СССР
Производство: Молдова Фильм, ТО «Арта»

Жанр: боевик, драма, военный
Год выпуска: 1978
Продолжительность: 01:28:40

Перевод: Не требуется
Cубтитры: нет
Оригинальная аудиодорожка: русский

Режиссер: Василе Паскару

В ролях:
Эммануил Виторган, Альгимантас Масюлис, Константин Константинов, Ион Шкуря, Валериу Купча, Паул Буткевич, Улдис Лиелдидж, Петр (Петря) Баракчи, Владимир Мсрян, Арнис Лицитис, Евгений Герасимов, Ирина Азер, Алексей Бойко, Юрий Кузьменко, Владимир Шакало, Д. Япунджян, Михаил Миликов, Серджиу Финити, Игорь Стаценко, Вячеслав Кутаков, Борис Зайденберг, Всеволод Гаврилов...
Полный список актёров

Описание:
Остросюжетный рассказ об операции "Крепость", проведенной советским десантом в последний год второй мировой войны по спасению группы европейских ученых, отказавшихся работать на фашистскую Германию и заключенных в крепость на одном из островов Адриатического моря.
По мотивам документального рассказа С.С.Смирнова "Госпиталь в Еремеевке".

Источник: DVD5 R5
Качество видео: DVDRip
Формат видео: AVI

Видео: 688x288 (2,40:1), 25 fps, XviD ~ 971 kbps avg, 0.196 bit/pixel
Аудио: 48 kHz, Dolby Digital AC3 2.0, 192 kbps

Раздача от:
Общее
Полное имя : Krepost.1978.DVDRip_[New-team]_by_AVP_Studio.avi
Формат : AVI
Формат/Информация : Audio Video Interleave
Размер файла : 744 Мбайт
Продолжительность : 1 ч. 28 м.
Общий поток : 1173 Кбит/сек
Программа кодирования : VirtualDubMod 1.5.10.3 | www.virtualdub-fr.org || (build 2550/release)
Библиотека кодирования : VirtualDubMod build 2550/release

Видео
Идентификатор : 0
Формат : MPEG-4 Visual
Профиль формата : Advanced Simple@L5
Параметр BVOP формата : 1
Параметр QPel формата : Нет
Параметр GMC формата : Без точки перехода
Параметр матрицы формата : Выборочная
Идентификатор кодека : XVID
Идентификатор кодека/Подсказка : XviD
Продолжительность : 1 ч. 28 м.
Битрейт : 971 Кбит/сек
Ширина : 688 пикселей
Высота : 288 пикселей
Соотношение сторон : 2,40:1
Частота кадров : 25,000 кадров/сек
Цветовое пространство : YUV
Субдискретизация насыщенности : 4:2:0
Битовая глубина : 8 бит
Тип развёртки : Прогрессивная
Метод сжатия : С потерями
Бит/(Пиксели*Кадры) : 0.196
Размер потока : 616 Мбайт (83%)
Библиотека кодирования : XviD 73

Аудио
Идентификатор : 1
Формат : AC-3
Формат/Информация : Audio Coding 3
Расширение режима : CM (complete main)
Параметр Endianness формата : Big
Идентификатор кодека : 2000
Продолжительность : 1 ч. 28 м.
Вид битрейта : Постоянный
Битрейт : 192 Кбит/сек
Каналы : 2 канала
Расположение каналов : Front: L R
Частота : 48,0 КГц
Метод сжатия : С потерями
Размер потока : 122 Мбайт (16%)
Выравнивание : Разделение по промежуткам
Продолжительность промежутка : 40 мс. (1,00 видеокадр)
Время предзагрузки промежутка : 500 мс
pb.wtf



Скачать Крепость через торрент http://s018.radikal.ru/i504/1509/4c/35369e4906a8.png Скачать фильм Крепость через торрент бесплантно в хорошем качестве Описание:Остросюжетный рассказ об операции "Крепость", проведенной советским десантом в последний год второй мировой войны по спасению ... 10 10 4
Торрент: Зарегистрирован [2015-09-24 08:37] · скачан: 43 раз
Статус: √ проверено
Размер: 744 MB
Как cкачать? Как скачать Крепость через торрент | UTorrent

% Раздел Тема Автор DL S | L
Фантастика [ 452 MB ] Василий Головачев - Очень большой лес 4. | Крепость большого леса. [Антон Ческидов 2021 128 kbps MP3] urapavel Скачать
5 | 0
Ultra HD (UHD: 2K, 4K, 8K) — видео сверхвысокой чёткости [ 115.36 GB ] Властелин колец: Две крепости / The Lord of the Rings: The Two Towers [2002 UHD BDRemux 2160p ] [Расширенная версия] DUB bober100 Скачать
2 | 0
Ultra HD (UHD: 2K, 4K, 8K) — видео сверхвысокой чёткости [ 108.98 GB ] Властелин колец: Две крепости / The Lord of the Rings: The Two Towers [2002 UHD BDRemux 2160p] [Расширенная версия] DUB bober100 Скачать
3 | 0
Аудиоспектакли и литературные чтения [ 109 MB ] Смирнов Сергей - Крепость над Бугом [Борис П. Зубов и др. 2020 128 kbps MP3] urapavel Скачать
1 | 0
T Азиатские фильмы [ 35.75 GB ] Крепость Намхансансон / Namhansanseong / The Fortress [2017 история биография военный BDRemux 1080p] [DVO] killermax2013 Скачать
1 | 0
RPG [ 4.27 GB ] Two Worlds 2 + Pirates of the Flying Fortress / Два Мира 2 + Пираты Летучей крепости [Lossless RepackРуский/ENGRPG / 3D / 1st Person / 3rd Person ] Shmel Скачать
1 | 0
Фильмы с авторской озвучкой [ 2.05 GB ] Трое негодяев в скрытой крепости / Kakushi-toride no san-akunin / The Hidden Fortress [1958 BDRip] [AVO] killermax2013 Скачать
1 | 0

28-11-2019 20:33  

Отключить всю рекламу на сайте

24-09-2015 13:56 Крепость Скачать торрент  

По мотивам документального рассказа С.С.Смирнова "Госпиталь в Еремеевке".
---------------------------------------------
Не понимаю.Это же самое было написано в фильме "Я сделал всё,что смог".Два разных фильма по мотивам одного рассказа?pb.wtf



    Дорогой пользователь! Огромная просьба, поблагодарите релизера, оцените раздачу и оставьте свои комментарий, если Вы скачали Крепость через торрент бесплатно! Внесите свою лепту в развитие PiratBit!
    Комментировать посты могут только пользователи прошедшие не сложную регистрацию
    Показать сообщения:    

    Крепость через торрент
    Скачать бесплатно Крепость
    Крепость скачать торрент
    Крепость смотреть онлайн
    Cкачать фильм Крепость бесплатно
    Крепость скачать торрент в хорошем качестве
    Крепость смотреть онлайн бесплатно в хорошем качестве


    Вы не можете начинать темы
    Вы не можете отвечать на сообщения
    Вы не можете редактировать свои сообщения
    Вы не можете удалять свои сообщения
    Вы не можете голосовать в опросах
    Вы не можете прикреплять файлы к сообщениям
    Вы можете скачивать файлы