Ссылка на приватное зеркало нашего сайта всего за 1$. Внимание количество ограничено!!!

2 сезон

iTunes

1 сезон

1

iTunes

iTunes

iTunes

1 сезон

RePack

30

ИГРА 18+

pack

ВАЖНО

!!Акция!!

Alien_RageХит недели

RePack

MK11
pack

Забери бонус

RePack

jed

!!Акция!!

Alien_Rage

RePack

fifa19

RePack

Assassins Creed: Odyssey

RePack

NEED FOR SPEED™ PAYBACK

4 сезон

9 сезон

Бесстыжие 9 сезон

Все сериалы

все сериалы на PB.wtf

RePack

FAR CRY 5
  

Неверная / Unfaithful (Эдриан Лайн) [2002, триллер, драма, мелодрама, BDRip 720p by msltel] DUB, MVO, 3 x AVO pb.wtf

Неверная через торрент pb.wtf

Размер: 6.58 GB | Добавлен: 5 лет назад | Торрент скачан:48 раз
Скачать  

25-09-2015 09:59 Неверная Скачать торрент  

Название: Неверная
Оригинальное название: Unfaithful
Год выпуска: 2002
Страна: США, Германия, Франция
Жанр: триллер, драма, мелодрама
Продолжительность: 02:03:37
Перевод: дублированный, профессиональный многоголосый, авторский

Режиссёр: Эдриан Лайн

В ролях: Дайан Лэйн, Ричард Гир, Оливье Мартинес, Эрик Пер Салливан, Мира Лукреция Тейлор, Мишель Монахэн, Чад Лоу, Эрик Андерсон, Дэймон Гаптон, Кейт Бёртон, Маргарет Колин, Марк Форгет, Ларри Глисон, Доминик Кьянезе, Джордж Ф. Миллер, Пол Д. Файлла, Хэл Смит-Рэйнолдс, Тайри Майкл Симпсон, Мюриель Арден, Салем Людвиг, Уильям Абади, Мэттью Мейтленд, Чарльз Глейсер, Желько Иванек, Гэри Басараба, Энн Питоняк, Расселл Гибсон, Лиза Эмери, Майкл Эмерсон, Дэвид Джеффресон, Джонатан Марк МакДоннел, Джесика Питерс, Роберт Питерс, Ник Пьетерникай, Джон Ротмен, Джон Х. Тобин

Описание: Эдварду и Конни Самнер можно позавидовать: вместе с восьмилетним сыном, собакой и домоправительницей они наслаждаются жизнью в тихом пригороде Нью-Йорка. Но судьба в облике молодого человека, с которым Конни сталкивается в Сохо, наносит удар по этому воплощению «американской мечты» и по счастливому, хотя и слегка монотонному существованию супругов. Случайная встреча перерастает в бурный роман, в котором есть всё: тайна, спонтанность, красота и… опасность. Когда Эдвард узнаёт о том, что жена от него что-то скрывает, он начинает за ней следить, выведывая мучительные подробности обмана. Не выдержав груза тайны, он встречается с любовником Конни, и копившийся в нём гнев выходит наружу приступом страшной, неожиданной для него самого, ярости. Что ждёт семью, в которой поселились обман, чувство вины и страх? Есть ли у неё будущее?...



Качество: BDRip 720p Сравнение с исходником
Формат: MKV
Видео: MPEG-4 AVC, 5069 Кбит/с, 1280x694, 23,976 кадра/с
Аудио 1: русский, AC3, 448 kbps, 6 ch, 48 kHz [дублированный]
Аудио 2: русский, AC3, 448 kbps, 6 ch, 48 kHz [профессиональный многоголосый]

Внешние файлы
Аудио: русский, AC3, 192 kbps, 2 ch, 48 kHz [авторский, Сергей Визгунов]
Аудио: русский, AC3, 448 kbps, 6 ch, 48 kHz [авторский, Юрий Живов]
Аудио: русский, AC3, 448 kbps, 6 ch, 48 kHz [авторский, Антон Карповский]
Аудио: английский, AC3, 448 kbps, 6 ch, 48 kHz [оригинал]
Субтитры: русские
Субтитры: английские
«Золотой сателлит» за главную женскую роль.

Оскар, 2003 год
Номинации (1):
Лучшая женская роль (Дайан Лэйн)

Золотой глобус, 2003 год
Номинации (1):
Лучшая женская роль (драма) (Дайан Лэйн)

Премия Гильдии актеров, 2003 год
Номинации (1):
Лучшая женская роль (Дайан Лэйн)
Общее
Полное имя : D:VideoНеверная.2002.BDRip.720pНеверная.2002.AVO.rus.А.Карповский.ac3
Формат : AC-3
Формат/Информация : Audio Coding 3
Размер файла : 396 Мбайт
Продолжительность : 2 ч. 3 м.
Режим общего битрейта : Постоянный
Общий поток : 448 Кбит/сек

Аудио
Формат : AC-3
Формат/Информация : Audio Coding 3
Расширение режима : CM (complete main)
Параметр Endianness формата : Big
Продолжительность : 2 ч. 3 м.
Вид битрейта : Постоянный
Битрейт : 448 Кбит/сек
Каналы : 6 каналов
Расположение каналов : Front: L C R, Side: L R, LFE
Частота : 48,0 КГц
Метод сжатия : С потерями
Размер потока : 396 Мбайт (100%)

Общее
Полное имя : D:VideoНеверная.2002.BDRip.720pНеверная.2002.AVO.rus.С.Визгунов.ac3
Формат : AC-3
Формат/Информация : Audio Coding 3
Размер файла : 170 Мбайт
Продолжительность : 2 ч. 3 м.
Режим общего битрейта : Постоянный
Общий поток : 192 Кбит/сек

Аудио
Формат : AC-3
Формат/Информация : Audio Coding 3
Расширение режима : CM (complete main)
Параметр Endianness формата : Big
Продолжительность : 2 ч. 3 м.
Вид битрейта : Постоянный
Битрейт : 192 Кбит/сек
Каналы : 2 канала
Расположение каналов : Front: L R
Частота : 48,0 КГц
Метод сжатия : С потерями
Размер потока : 170 Мбайт (100%)

Общее
Полное имя : D:VideoНеверная.2002.BDRip.720pНеверная.2002.AVO.rus.Ю.Живов.ac3
Формат : AC-3
Формат/Информация : Audio Coding 3
Размер файла : 396 Мбайт
Продолжительность : 2 ч. 3 м.
Режим общего битрейта : Постоянный
Общий поток : 448 Кбит/сек

Аудио
Формат : AC-3
Формат/Информация : Audio Coding 3
Расширение режима : CM (complete main)
Параметр Endianness формата : Big
Продолжительность : 2 ч. 3 м.
Вид битрейта : Постоянный
Битрейт : 448 Кбит/сек
Каналы : 6 каналов
Расположение каналов : Front: L C R, Side: L R, LFE
Частота : 48,0 КГц
Метод сжатия : С потерями
Размер потока : 396 Мбайт (100%)

Общее
Уникальный идентификатор : 242272970527197207976893822826400398715 (0xB64413AD73609B519989D0A2295B3D7B)
Полное имя : D:VideoНеверная.2002.BDRip.720pНеверная.2002.BDRip.720p.mkv
Формат : Matroska
Версия формата : Version 4 / Version 2
Размер файла : 5,26 Гбайт
Продолжительность : 2 ч. 3 м.
Общий поток : 6086 Кбит/сек
Название фильма : BDRip -- STarankov
Дата кодирования : UTC 2015-09-25 07:03:07
Программа кодирования : mkvmerge v8.2.0 ('World of Adventure') 64bit
Библиотека кодирования : libebml v1.3.1 + libmatroska v1.4.2
DURATION : 02:03:37.760000000
NUMBER_OF_FRAMES : 231805
NUMBER_OF_BYTES : 415394560
_STATISTICS_WRITING_APP : mkvmerge v8.2.0 ('World of Adventure') 64bit
_STATISTICS_WRITING_DATE_UTC : 2015-09-25 07:03:07
_STATISTICS_TAGS : BPS DURATION NUMBER_OF_FRAMES NUMBER_OF_BYTES

Видео
Идентификатор : 1
Формат : AVC
Формат/Информация : Advanced Video Codec
Профиль формата : High@L4.1
Параметр CABAC формата : Да
Параметр ReFrames формата : 9 кадров
Идентификатор кодека : V_MPEG4/ISO/AVC
Продолжительность : 2 ч. 3 м.
Битрейт : 5069 Кбит/сек
Ширина : 1280 пикселей
Высота : 694 пикселя
Соотношение сторон : 1,85:1
Режим частоты кадров : Постоянный
Частота кадров : 23,976 кадра/сек
Цветовое пространство : YUV
Субдискретизация насыщенности : 4:2:0
Битовая глубина : 8 бит
Тип развёртки : Прогрессивная
Бит/(Пиксели*Кадры) : 0.238
Размер потока : 4,38 Гбайт (83%)
Библиотека кодирования : x264 core 146 r2538 121396c
Настройки программы : cabac=1 / ref=9 / deblock=1:-2:-2 / analyse=0x3:0x113 / me=umh / subme=10 / psy=1 / psy_rd=1.00:0.15 / mixed_ref=1 / me_range=32 / chroma_me=1 / trellis=2 / 8x8dct=1 / cqm=0 / deadzone=21,11 / fast_pskip=1 / chroma_qp_offset=-3 / threads=6 / lookahead_threads=1 / sliced_threads=0 / nr=0 / decimate=1 / interlaced=0 / bluray_compat=0 / constrained_intra=0 / bframes=8 / b_pyramid=2 / b_adapt=2 / b_bias=0 / direct=1 / weightb=1 / open_gop=0 / weightp=2 / keyint=230 / keyint_min=23 / scenecut=40 / intra_refresh=0 / rc_lookahead=40 / rc=crf / mbtree=0 / crf=18.6 / qcomp=0.60 / qpmin=0 / qpmax=69 / qpstep=4 / vbv_maxrate=40000 / vbv_bufsize=50000 / crf_max=0.0 / nal_hrd=none / filler=0 / ip_ratio=1.40 / pb_ratio=1.30 / aq=1:1.00
Язык : English
Default : Да
Forced : Нет
DURATION : 02:03:37.744000000
NUMBER_OF_FRAMES : 177848
NUMBER_OF_BYTES : 4810118318
_STATISTICS_WRITING_APP : mkvmerge v8.2.0 ('World of Adventure') 64bit
_STATISTICS_WRITING_DATE_UTC : 2015-09-25 07:03:07
_STATISTICS_TAGS : BPS DURATION NUMBER_OF_FRAMES NUMBER_OF_BYTES

Аудио #1
Идентификатор : 2
Формат : AC-3
Формат/Информация : Audio Coding 3
Расширение режима : CM (complete main)
Параметр Endianness формата : Big
Идентификатор кодека : A_AC3
Продолжительность : 2 ч. 3 м.
Вид битрейта : Постоянный
Битрейт : 448 Кбит/сек
Каналы : 6 каналов
Расположение каналов : Front: L C R, Side: L R, LFE
Частота : 48,0 КГц
Метод сжатия : С потерями
Размер потока : 396 Мбайт (7%)
Заголовок : DUB
Язык : Russian
Default : Да
Forced : Нет

Аудио #2
Идентификатор : 3
Формат : AC-3
Формат/Информация : Audio Coding 3
Расширение режима : CM (complete main)
Параметр Endianness формата : Big
Идентификатор кодека : A_AC3
Продолжительность : 2 ч. 3 м.
Вид битрейта : Постоянный
Битрейт : 448 Кбит/сек
Каналы : 6 каналов
Расположение каналов : Front: L C R, Side: L R, LFE
Частота : 48,0 КГц
Метод сжатия : С потерями
Размер потока : 396 Мбайт (7%)
Заголовок : MVO
Язык : Russian
Default : Нет
Forced : Нет

Общее
Полное имя : D:VideoНеверная.2002.BDRip.720pНеверная.2002.eng.srt
Формат : SubRip
Размер файла : 63,3 Кбайт

Текст
Формат : SubRip
Метод сжатия : Без потерь

Общее
Полное имя : D:VideoНеверная.2002.BDRip.720pНеверная.2002.Original.eng.ac3
Формат : AC-3
Формат/Информация : Audio Coding 3
Размер файла : 396 Мбайт
Продолжительность : 2 ч. 3 м.
Режим общего битрейта : Постоянный
Общий поток : 448 Кбит/сек

Аудио
Формат : AC-3
Формат/Информация : Audio Coding 3
Расширение режима : CM (complete main)
Параметр Endianness формата : Big
Продолжительность : 2 ч. 3 м.
Вид битрейта : Постоянный
Битрейт : 448 Кбит/сек
Каналы : 6 каналов
Расположение каналов : Front: L C R, Side: L R, LFE
Частота : 48,0 КГц
Метод сжатия : С потерями
Размер потока : 396 Мбайт (100%)

Общее
Полное имя : D:VideoНеверная.2002.BDRip.720pНеверная.2002.rus.srt
Формат : SubRip
Размер файла : 78,7 Кбайт

Текст
Формат : SubRip
Метод сжатия : Без потерь
pb.wtf



Скачать Неверная через торрент http://i70.fastpic.ru/big/2015/0923/6d/947c114e4180f77f935562cb0a43d16d.jpg Скачать фильм Неверная через торрент бесплантно в хорошем качестве Описание: Эдварду и Конни Самнер можно позавидовать: вместе с восьмилетним сыном, собакой и домоправительницей они наслаждаются жизнью в ... 10 10 5
Info! Золотая раздача, скачанное не засчитывается.
Торрент: Зарегистрирован [2015-09-25 09:59] · скачан: 48 раз
Статус: √ проверено
Размер: 6.58 GB
Как cкачать? Как скачать Неверная через торрент | qTorrent

% Раздел Тема Автор DL S | L
Фильмы [HD 720p, 1080p] (Хороший звук DUB, MVO) [ 15.7 GB ] Неверная / Unfaithful [2002 BDRip 1080p by msltel] DUB MVO 3 x AVO msltel Скачать
1 | 0
Фильмы 2001-2005 [ 4.47 GB ] Неверная / Unfaithful [2002 BDRip AVC by msltel] DUB MVO 3 x AVO msltel Скачать
1 | 0


Последний раз редактировалось: msltel (2015-09-25 13:37), всего редактировалось 1 раз

28-11-2019 20:33  

Отключить всю рекламу на сайте

25-09-2015 11:54 Неверная Скачать торрент  

трактор надо было рисовать.pb.wtf



    Дорогой пользователь! Огромная просьба, поблагодарите релизера, оцените раздачу и оставьте свои комментарий, если Вы скачали Неверная через торрент бесплатно! Внесите свою лепту в развитие PiratBit!
    Комментировать посты могут только пользователи прошедшие не сложную регистрацию
    Показать сообщения:    

    Неверная через торрент
    Скачать бесплатно Неверная
    Неверная скачать торрент
    Неверная смотреть онлайн
    Cкачать фильм Неверная бесплатно
    Неверная скачать торрент в хорошем качестве
    Неверная смотреть онлайн бесплатно в хорошем качестве


    Вы не можете начинать темы
    Вы не можете отвечать на сообщения
    Вы не можете редактировать свои сообщения
    Вы не можете удалять свои сообщения
    Вы не можете голосовать в опросах
    Вы не можете прикреплять файлы к сообщениям
    Вы можете скачивать файлы