2 сезон

iTunes

MVO

1

2 сезон

iTunes

iTunes

1 сезон

RePack

30

Новинка

ВАЖНО

ИГРА 18+

pack

RePack

MK11
pack

Легкие деньги

RePack

jed

RePack

fifa19

RePack

RDR2

RePack

NEED FOR SPEED™ PAYBACK

4 сезон

9 сезон

Бесстыжие 9 сезон

Все сериалы

все сериалы на PB.wtf

RePack

FAR CRY 5

Anonymous, доброй ночи, мы не успеваем собрать деньги на оплату серверов за декабрь и январь, помогите нам пожалуйста в это трудное время. В качестве благодарности мы отключим Вам всю рекламу на сайте (укажите свой ник в строку Ваше имя)!

×
  
Magnet ссылка

Всеми силами / De toutes nos forces (Нильс Тавернье) [2013, драма, спорт, HDRip, Профессиональный (многоголосый)] pb.wtf

Всеми силами через торрент pb.wtf

Размер: 1.37 GB | Добавлен: 5 лет 3 мес. назад | Торрент скачан:98 раз
Скачать  

25-09-2015 10:46 Всеми силами Скачать торрент  

Всеми силами / De toutes nos forces


Год выпуска: 2013
Страна: Франция, Бельгия
Жанр: драма, спорт

Продолжительность: 01:29:21
Перевод: Профессиональный (многоголосый) [Официальный звук]
Режиссер: Нильс Тавернье
В ролях:

Жак Гамблен (Paul Amblard), Александра Лами (Claire Amblard), Fabien Héraud (Julien Amblard), Софи де Фюрст (Sophie Amblard), Пабло Поли (Yohan), Ксавьер Мэтью (Sergio), Кристель Корнил (Isabelle), Фридерик Эпо (Docteur Pascal), Сандра Леклерк (Lucie), Lydia Guillermin (La jeune revendicatrice IMC), Соня Жакоб (La kiné), Laura Lardeux (Anne)

Описание:
Как и все подростки, Жюльен жаждет острых ощущений и приключений. Но очень трудно воплотить эти мечты в реальность, когда ты прикован к инвалидному креслу. Чтобы добиться своего, он вызывает отца принять участие вместе с ним в триатлоне «Железный человек Ниццы», одном из самых сложных спортивных соревнований во всей Франции.
Рейтинг:


Качество: HDRip
Формат: AVI
Видео кодек: XviD
Аудио кодек: AC3
Видео: XviD, 720x384 (1.875), 1987 kbps, 23,976 fps, 0,300 bpp
Аудио: AC3 / 2.0 / 48 kHz / 192 kbps / 16 bit

Код:

Формат                                   : AVI
Формат/Информация                        : Audio Video Interleave
Размер файла                             : 1,37 Гбайт
Продолжительность                        : 1 ч. 29 м.
Общий поток                              : 2189 Кбит/сек
Программа кодирования                    : VirtualDubMod 1.5.10.2 (build 2540/release)
Библиотека кодирования                   : VirtualDubMod build 2540/release

Видео
Идентификатор                            : 0
Формат                                   : MPEG-4 Visual
Профиль формата                          : Advanced Simple@L5
Параметр BVOP формата                    : 2
Параметр QPel формата                    : Нет
Параметр GMC формата                     : Без точки перехода
Параметр матрицы формата                 : Default (MPEG)
Идентификатор кодека                     : XVID
Идентификатор кодека/Подсказка           : XviD
Продолжительность                        : 1 ч. 29 м.
Битрейт                                  : 1988 Кбит/сек
Ширина                                   : 720 пикселей
Высота                                   : 384 пикселя
Соотношение сторон                       : 1,85:1
Частота кадров                           : 23,976 кадра/сек
Цветовое пространство                    : YUV
Субдискретизация насыщенности            : 4:2:0
Битовая глубина                          : 8 бит
Тип развёртки                            : Прогрессивная
Метод сжатия                             : С потерями
Бит/(Пиксели*Кадры)                      : 0.300
Размер потока                            : 1,24 Гбайт (91%)
Библиотека кодирования                   : XviD 1.2.1 (UTC 2008-12-04)

Аудио
Идентификатор                            : 1
Формат                                   : AC-3
Формат/Информация                        : Audio Coding 3
Расширение режима                        : CM (complete main)
Параметр Endianness формата              : Big
Идентификатор кодека                     : 2000
Продолжительность                        : 1 ч. 29 м.
Вид битрейта                             : Постоянный
Битрейт                                  : 192 Кбит/сек
Каналы                                   : 2 канала
Расположение каналов                     : Front: L R
Частота                                  : 48,0 КГц
Битовая глубина                          : 16 бит
Метод сжатия                             : С потерями
Размер потока                            : 123 Мбайт (9%)
Выравнивание                             : Разделение по промежуткам
Продолжительность промежутка             : 42  мс. (1,00 видеокадр)
Время предзагрузки промежутка            : 500  мс.



pb.wtf



Скачать Всеми силами через торрент http://i2.imageban.ru/out/2015/09/25/5e544748d958414b28fe335cb270135b.jpg Скачать фильм Всеми силами через торрент бесплантно в хорошем качестве Описание: Как и все подростки, Жюльен жаждет острых ощущений и приключений. Но очень трудно воплотить эти мечты в реальность, когда ты ... 8.9 10 9
Info! Золотая раздача, скачанное не засчитывается.
Торрент: Зарегистрирован [2015-09-25 10:46] · скачан: 98 раз
Статус: √ проверено
Размер: 1.37 GB
Как cкачать? Как скачать Всеми силами через торрент | UTorrent

28-11-2019 20:33  

Отключить всю рекламу на сайте

02-10-2015 21:32 Всеми силами Скачать торрент  

Хорошее, душевное кино. Неплохо для родаков, потерямших связь со своими повзрослемшими детьми. Порадовала физическая форма Жака. Авторам спс.pb.wtf



    Дорогой пользователь! Огромная просьба, поблагодарите релизера, оцените раздачу и оставьте свои комментарий, если Вы скачали Всеми силами через торрент бесплатно! Внесите свою лепту в развитие PiratBit!
    Комментировать посты могут только пользователи прошедшие не сложную регистрацию
    Показать сообщения:    

    Всеми силами через торрент
    Скачать бесплатно Всеми силами
    Всеми силами скачать торрент
    Всеми силами смотреть онлайн
    Cкачать фильм Всеми силами бесплатно
    Всеми силами скачать торрент в хорошем качестве
    Всеми силами смотреть онлайн бесплатно в хорошем качестве


    Вы не можете начинать темы
    Вы не можете отвечать на сообщения
    Вы не можете редактировать свои сообщения
    Вы не можете удалять свои сообщения
    Вы не можете голосовать в опросах
    Вы не можете прикреплять файлы к сообщениям
    Вы можете скачивать файлы