Ссылка на приватное зеркало всего за 1$. Внимание количество ограничено!!!

iTunes

iTunes

iTunes

1

iTunes

iTunes

iTunes

iTunes

iTunes

30
pack

$ от Little Big

ВАЖНО

!!Акция!!

Alien_RageХит недели

RePack

Resident Evil 21

ИГРА 18+

pack

RePack

jed

!!Акция!!

Alien_Rage

RePack

fifa19

RePack

Assassins Creed: Odyssey

RePack

NEED FOR SPEED™ PAYBACK

4 сезон

9 сезон

Бесстыжие 9 сезон

Все сериалы

все сериалы на PB.wtf

RePack

FAR CRY 5
  

Рио, я люблю тебя / Rio, Eu Te Amo (Висенте Аморим , Гильермо Арриага , Стефан Эллиотт ) [2014, драма, мелодрама, комедия, WEB-DL 1080p] DUB Лицензия pb.wtf

Рио, я люблю тебя через торрент pb.wtf

Размер: 3.48 GB | Добавлен: 4 года 9 мес. назад | Торрент скачан:34 раза
Скачать  

11-03-2015 19:55 Рио, я люблю тебя Скачать торрент  


Рио, я люблю тебя / Rio, Eu Te Amo
«Love happens everywhere. Some love stories only happen in Rio»

ИНФОРМАЦИЯ:
Год выпуска:2014
Страна: Бразилия, США
Жанр: драма, мелодрама, комедия, фэнтези
Продолжительность: 01:44:37
Перевод: Дубляж - [Лицензия]
Режиссер: Висенте Аморим , Гильермо Арриага , Стефан Эллиотт

В Ролях:


Фернанда Монтенегро (Dona Fulana (segment 'Dona Fulana')), Эдуардо Стерблитч (Leandro (segment 'Dona Fulana')), Режина Казе (Mendiga (segment 'Dona Fulana')), Степан Нерцессян (Porteiro (segment 'Dona Fulana')), Угу Карвана (Comerciante (segment 'Dona Fulana')), Сандро Роча (Policial (segment 'Dona Fulana')), Эмили Мортимер (Dorothy (segment 'La Fortuna')), Бэзил Хоффман (James (segment 'La Fortuna')), Венсан Кассель (Zé (segment 'A Musa')), Марсиу Гарсия (Pit Boy (segment 'A Musa')), Райан Квантен (Jai Arnott (segment 'Acho que Estou Apaixonado')), Марсело Серрадо (Célio (segment 'Acho que Estou Apaixonado'))

ОПИСАНИЕ:
Фильм рассказывает об одном из самых удивительных городов Южной Америки - Рио-де-Жанейро. Режиссеры из разных стран сняли десять коротких историй, которые рассказывают о любви. Каждый эпизод посвящен одному из районов города, которые обладают своими неподражаемыми колоритами.

  • Мировая премьера:29 августа 2014

    ТЕХ.ДАННЫЕ:
    Качество: WEB-DL 1080p
    Формат: MKV
    Видео кодек: AVC
    Аудио кодек: AC3
    Видео: AVC, 1920x1080 (16:9), 4000 kbps, 50 fps, 0,039 bpp
    Аудио №1: русский / AC3 / 5.1 / 48 kHz / 448 kbps / 16 bit ||
    Аудио №2: английский / AC3 / 2.0 / 48 kHz / 320 kbps / 16 bit



    Код:

    General
    Unique ID                                : 170864030629716496184182604620006427735 (0x808B371DF4D02C9D82FBC086AFB40C57)
    Complete name                            : D:\Торенты\Rio.Ya.ljublju.tebja.2014.D.WEB-DL.1080p.ELEKTRI4KA.mkv
    Format                                   : Matroska
    Format version                           : Version 4 / Version 2
    File size                                : 3.48 GiB
    Duration                                 : 1h 44mn
    Overall bit rate                         : 4 764 Kbps
    Movie name                               : Rio.Ya.ljublju.tebja.2014.D.WEB-DL.1080p.ELEKTRI4KA. [3imeMachi9e]
    Encoded date                             : UTC 2015-03-11 17:41:02
    Writing application                      : mkvmerge v7.7.0 ('Six Voices') 32bit built on Feb 28 2015 23:23:00
    Writing library                          : libebml v1.3.1 + libmatroska v1.4.2

    Video
    ID                                       : 1
    Format                                   : AVC
    Format/Info                              : Advanced Video Codec
    Format profile                           : High@L4.0
    Format settings, CABAC                   : Yes
    Format settings, ReFrames                : 3 frames
    Codec ID                                 : V_MPEG4/ISO/AVC
    Duration                                 : 1h 44mn
    Bit rate                                 : 4 000 Kbps
    Width                                    : 1 920 pixels
    Height                                   : 1 080 pixels
    Display aspect ratio                     : 16:9
    Frame rate                               : 50.000 fps
    Original frame rate                      : 25.000 fps
    Color space                              : YUV
    Chroma subsampling                       : 4:2:0
    Bit depth                                : 8 bits
    Scan type                                : Progressive
    Bits/(Pixel*Frame)                       : 0.039
    Stream size                              : 2.85 GiB (82%)
    Title                                    : Rio.Ya.ljublju.tebja.2014.D.WEB-DL.1080p.ELEKTRI4KA.uniongang.tv [3imeMachi9e]
    Writing library                          : x264 core 142 r2389 956c8d8
    Encoding settings                        : cabac=1 / ref=3 / deblock=1:0:0 / analyse=0x3:0x133 / me=umh / subme=7 / psy=1 / psy_rd=1.00:0.00 / mixed_ref=1 / me_range=32 / chroma_me=1 / trellis=2 / 8x8dct=1 / cqm=0 / deadzone=21,11 / fast_pskip=1 / chroma_qp_offset=-2 / threads=12 / lookahead_threads=2 / sliced_threads=0 / nr=0 / decimate=1 / interlaced=0 / bluray_compat=0 / constrained_intra=0 / bframes=0 / weightp=0 / keyint=75 / keyint_min=26 / scenecut=40 / intra_refresh=0 / rc_lookahead=50 / rc=2pass / mbtree=0 / bitrate=4000 / ratetol=1.0 / qcomp=0.20 / qpmin=10 / qpmax=51 / qpstep=4 / cplxblur=20.0 / qblur=0.5 / vbv_maxrate=5000 / vbv_bufsize=5000 / nal_hrd=none / filler=0 / ip_ratio=1.40 / aq=1:1.00
    Language                                 : Russian
    Default                                  : Yes
    Forced                                   : No
    Color primaries                          : BT.709-5, BT.1361, IEC 61966-2-4, SMPTE RP177
    Transfer characteristics                 : BT.709-5, BT.1361
    Matrix coefficients                      : BT.709-5, BT.1361, IEC 61966-2-4 709, SMPTE RP177

    Audio #1
    ID                                       : 2
    Format                                   : AC-3
    Format/Info                              : Audio Coding 3
    Mode extension                           : CM (complete main)
    Codec ID                                 : A_AC3
    Duration                                 : 1h 44mn
    Bit rate mode                            : Constant
    Bit rate                                 : 448 Kbps
    Channel(s)                               : 6 channels
    Channel positions                        : Front: L C R, Side: L R, LFE
    Sampling rate                            : 48.0 KHz
    Bit depth                                : 16 bits
    Compression mode                         : Lossy
    Stream size                              : 335 MiB (9%)
    Title                                    : Rio.Ya.ljublju.tebja.2014.D.WEB-DL.1080p.ELEKTRI4KA.uniongang.tv [3imeMachi9e]
    Language                                 : Russian
    Default                                  : Yes
    Forced                                   : No

    Audio #2
    ID                                       : 3
    Format                                   : AC-3
    Format/Info                              : Audio Coding 3
    Mode extension                           : CM (complete main)
    Codec ID                                 : A_AC3
    Duration                                 : 1h 44mn
    Bit rate mode                            : Constant
    Bit rate                                 : 320 Kbps
    Channel(s)                               : 2 channels
    Channel positions                        : Front: L R
    Sampling rate                            : 48.0 KHz
    Bit depth                                : 16 bits
    Compression mode                         : Lossy
    Stream size                              : 239 MiB (7%)
    Title                                    : Rio.Ya.ljublju.tebja.2014.D.WEB-DL.1080p.ELEKTRI4KA.uniongang.tv [3imeMachi9e]
    Language                                 : English
    Default                                  : No
    Forced                                   : No

    Скриншоты:


    © Оформление by Ворон
    pb.wtf



  • Скачать Рио, я люблю тебя через торрент http://pic.kartinco.top/images/6/ordi9.jpg Скачать фильм Рио, я люблю тебя через торрент бесплантно в хорошем качестве Е:Фильм рассказывает об одном из самых удивительных городов Южной Америки - Рио-де-Жанейро. Режиссеры из разных стран сняли десять коротких ... 10 10 4
    Торрент: Зарегистрирован [2015-09-25 14:14] · скачан: 34 раз
    Статус: √ проверено
    Размер: 3.48 GB
    Как cкачать? Как скачать Рио, я люблю тебя через торрент | qTorrent

    % Раздел Тема Автор DL S | L
    Фильмы 2014 [DVDrip, WEB-DLRip, HDrip] [ 1.46 GB ] Рио я люблю тебя / Rio Eu Te Amo [2014 WEB-DLRip] DUB Ворон Скачать
    1 | 0

    28-11-2019 20:33  

    Отключить всю рекламу на сайте

      Дорогой пользователь! Огромная просьба, поблагодарите релизера, оцените раздачу и оставьте свои комментарий, если Вы скачали Рио, я люблю тебя через торрент бесплатно! Внесите свою лепту в развитие PiratBit!
      Комментировать посты могут только пользователи прошедшие не сложную регистрацию
      Показать сообщения:    

      Рио, я люблю тебя через торрент
      Скачать бесплатно Рио, я люблю тебя
      Рио, я люблю тебя скачать торрент
      Рио, я люблю тебя смотреть онлайн
      Cкачать фильм Рио, я люблю тебя бесплатно
      Рио, я люблю тебя скачать торрент в хорошем качестве
      Рио, я люблю тебя смотреть онлайн бесплатно в хорошем качестве


      Вы не можете начинать темы
      Вы не можете отвечать на сообщения
      Вы не можете редактировать свои сообщения
      Вы не можете удалять свои сообщения
      Вы не можете голосовать в опросах
      Вы не можете прикреплять файлы к сообщениям
      Вы можете скачивать файлы